<?xml version="1.0" standalone="no"?>
<!DOCTYPE svg PUBLIC "-//W3C//DTD SVG 1.1//EN" "http://www.w3.org/Graphics/SVG/1.1/DTD/svg11.dtd" >
<svg>
<metadata>
Created by FontForge 20120731 at Wed Jul 20 14:37:43 2016
 By ,,,
HTF Gotham  Copr. 2002 The Hoefler Type Foundry, Inc. Info: www.typography.com
</metadata>
<defs>
<font id="GothamLight-Italic" horiz-adv-x="500" >
  <font-face 
    font-family="Gotham Light"
    font-weight="300"
    font-style="italic"
    font-stretch="normal"
    units-per-em="1000"
    panose-1="2 0 6 3 4 0 0 9 0 4"
    ascent="800"
    descent="-200"
    x-height="510"
    cap-height="700"
    bbox="-121 -200 1206 898"
    underline-thickness="20"
    underline-position="-113"
    slope="-12"
    unicode-range="U+0020-FB02"
  />
<missing-glyph 
 />
    <glyph glyph-name="fi" unicode="fi" horiz-adv-x="612" 
d="M531 510h49l-137 -510h-49zM180 465h-74l12 45h74l20 74q39 146 163 146q29 0 55 -6.5t47 -17.5l-12 -44q-26 12 -46.5 18t-45.5 6q-40 0 -70 -26.5t-45 -86.5l-17 -63h184l-12 -45h-184l-125 -465h-49zM579 710h61l-18 -67h-61z" />
    <glyph glyph-name="fl" unicode="fl" horiz-adv-x="612" 
d="M180 465h-74l12 45h74l20 74q39 146 163 146q29 0 55 -6.5t47 -17.5l-12 -44q-26 12 -46.5 18t-45.5 6q-40 0 -70 -26.5t-45 -86.5l-17 -63h184l-12 -45h-184l-125 -465h-49zM590 730h49l-196 -730h-49z" />
    <glyph glyph-name=".notdef" 
 />
    <glyph glyph-name="NUL" horiz-adv-x="0" 
 />
    <glyph glyph-name="nonmarkingreturn" horiz-adv-x="300" 
 />
    <glyph glyph-name="space" unicode=" " horiz-adv-x="300" 
 />
    <glyph glyph-name="exclam" unicode="!" horiz-adv-x="251" 
d="M47 85h66l-23 -85h-66zM197 630l19 70h58l-19 -70l-135 -447h-28z" />
    <glyph glyph-name="quotedbl" unicode="&#x22;" horiz-adv-x="410" 
d="M194 700h63v-5l-127 -249h-29zM374 700h63v-5l-127 -249h-29z" />
    <glyph glyph-name="numbersign" unicode="#" horiz-adv-x="678" 
d="M427 234l83 236h-207l-82 -236h206zM156 187h-121l12 47h125l83 236h-133l12 47h137l64 183h48l-64 -183h207l64 183h48l-64 -183h121l-12 -47h-125l-83 -236h133l-12 -47h-137l-65 -187h-48l65 187h-207l-65 -187h-48z" />
    <glyph glyph-name="dollar" unicode="$" horiz-adv-x="618" 
d="M278 47q45 -2 83 8t66 29.5t43.5 47t15.5 61.5q0 41 -29 72t-104 60zM396 651q-44 6 -82 -2t-66.5 -26.5t-45 -45.5t-16.5 -59q0 -45 32.5 -73t106.5 -56zM218 5q-69 11 -125 42t-94 75l38 33q35 -42 84.5 -68.5t113.5 -35.5l77 288q-48 18 -82 36t-55.5 38.5t-31.5 44.5
t-10 55q0 40 17.5 74.5t49 59.5t73.5 39t92 14q11 0 22 -0.5t22 -1.5l16 60h49l-18 -67q55 -11 97.5 -34t74.5 -55l-36 -36q-29 29 -67 49.5t-86 30.5l-73 -272q91 -33 132 -73.5t41 -102.5q0 -43 -18.5 -79t-52 -62.5t-80.5 -41.5t-104 -15h-19l-26 -98h-49z" />
    <glyph glyph-name="percent" unicode="%" horiz-adv-x="821" 
d="M592 36q29 0 54 15t44 39.5t29.5 55t10.5 61.5q0 48 -23.5 76.5t-68.5 28.5q-29 0 -54 -15t-44 -39.5t-29.5 -55t-10.5 -61.5q0 -48 23.5 -76.5t68.5 -28.5zM234 389q29 0 54 15t44 39.5t29.5 55t10.5 61.5q0 48 -23.5 76.5t-68.5 28.5q-29 0 -54 -15t-44 -39.5
t-29.5 -55t-10.5 -61.5q0 -48 23.5 -76.5t68.5 -28.5zM588 -7q-30 0 -55.5 11t-43.5 30.5t-28 45.5t-10 56q0 42 15 81.5t40.5 70t60.5 49t75 18.5q30 0 55.5 -11t43.5 -30.5t28 -45.5t10 -56q0 -42 -15 -81.5t-40.5 -70t-60.5 -49t-75 -18.5zM747 700h60l-682 -700h-60z
M230 346q-30 0 -55.5 11t-43.5 30.5t-28 45.5t-10 56q0 42 15 81.5t40.5 70t60.5 49t75 18.5q30 0 55.5 -11t43.5 -30.5t28 -45.5t10 -56q0 -42 -15 -81.5t-40.5 -70t-60.5 -49t-75 -18.5z" />
    <glyph glyph-name="ampersand" unicode="&#x26;" horiz-adv-x="690" 
d="M237 36q63 0 116.5 26.5t106.5 78.5l-159 225q-113 -27 -165 -80t-52 -115q0 -63 41.5 -99t111.5 -36zM326 411q58 15 96.5 33t61.5 38t32.5 41t9.5 42q0 46 -31 74.5t-84 28.5q-26 0 -50 -10t-42 -28t-28.5 -42t-10.5 -51q0 -32 11 -60.5t35 -65.5zM487 107
q-29 -29 -58 -51t-59.5 -36.5t-64.5 -22t-74 -7.5q-42 0 -78.5 11.5t-63.5 34t-42.5 55t-15.5 74.5q0 85 61.5 146t183.5 92q-21 34 -34 66.5t-13 66.5q0 38 15 70t40 55.5t58.5 37t70.5 13.5q75 0 119.5 -39.5t44.5 -105.5q0 -28 -11 -55t-37 -51.5t-69.5 -46t-108.5 -39.5
l142 -201q30 34 59 76t57 91l39 -23q-32 -54 -63.5 -98t-63.5 -80l90 -128l-39 -26z" />
    <glyph glyph-name="quotesingle" unicode="'" horiz-adv-x="230" 
d="M194 700h63v-5l-127 -249h-29z" />
    <glyph glyph-name="parenleft" unicode="(" horiz-adv-x="430" 
d="M273 -140q-35 31 -66.5 68t-55.5 81.5t-38 96.5t-14 112q0 73 23.5 145t72 137t123.5 121t177 98l17 -37q-98 -42 -167 -95.5t-112 -114t-62.5 -125t-19.5 -128.5q0 -56 12 -103t32.5 -86.5t47.5 -74t58 -66.5z" />
    <glyph glyph-name="parenright" unicode=")" horiz-adv-x="430" 
d="M-64 -102q98 42 167 95.5t112 114t62.5 125t19.5 128.5q0 56 -12 103t-32.5 86.5t-47.5 74t-58 66.5l28 29q34 -31 65.5 -68t55.5 -81.5t38.5 -96.5t14.5 -112q0 -73 -23.5 -145t-72 -137t-123.5 -121t-177 -98z" />
    <glyph glyph-name="asterisk" unicode="*" horiz-adv-x="430" 
d="M229 416l42 121l-121 -42l-12 41l129 24l-100 84l31 30l84 -97l24 125l41 -10l-42 -121l121 42l12 -41l-129 -24l100 -84l-31 -30l-84 97l-24 -125z" />
    <glyph glyph-name="plus" unicode="+" horiz-adv-x="639" 
d="M314 328h-217l13 48h217l57 215h50l-57 -215h217l-13 -48h-217l-58 -215h-50z" />
    <glyph glyph-name="comma" unicode="," horiz-adv-x="231" 
d="M-39 -82q37 13 56 33t24 49h-27l23 85h66l-20 -74q-8 -26 -17.5 -45t-23 -32.5t-31.5 -23t-43 -16.5z" />
    <glyph glyph-name="hyphen" unicode="-" horiz-adv-x="409" 
d="M89 325h268l-15 -56h-268z" />
    <glyph glyph-name="hyphen" unicode="&#xad;" horiz-adv-x="409" 
d="M89 325h268l-15 -56h-268z" />
    <glyph glyph-name="period" unicode="." horiz-adv-x="231" 
d="M37 85h66l-23 -85h-66z" />
    <glyph glyph-name="slash" unicode="/" 
d="M595 798h54l-716 -926h-54z" />
    <glyph glyph-name="zero" unicode="0" horiz-adv-x="709" 
d="M320 35q61 0 116.5 36t96.5 94.5t65.5 133t24.5 151.5q0 45 -11.5 84t-34.5 68t-57.5 46t-80.5 17q-62 0 -117 -36t-96 -94.5t-65.5 -133t-24.5 -151.5q0 -45 11.5 -84t34.5 -68t57.5 -46t80.5 -17zM317 -12q-58 0 -102 20t-73.5 55t-44.5 83t-15 104q0 57 12.5 113.5
t35 107.5t55 95.5t72.5 76.5t86.5 50.5t98.5 18.5q58 0 102 -20t73.5 -55t44.5 -83t15 -104q0 -86 -27 -168.5t-75 -148t-114 -105.5t-144 -40z" />
    <glyph glyph-name="one" unicode="1" horiz-adv-x="334" 
d="M266 645l-147 -46l-2 47l176 59h41l-189 -705h-52z" />
    <glyph glyph-name="two" unicode="2" horiz-adv-x="588" 
d="M-10 39l418 325q61 48 92 88.5t31 89.5q0 52 -39 86.5t-111 34.5q-63 0 -112.5 -30t-87.5 -70l-37 32q23 24 49 44.5t55.5 36.5t63 25t71.5 9q45 0 82 -12t63.5 -34t41.5 -53t15 -68q0 -62 -39 -111.5t-106 -101.5l-362 -280h404l-13 -50h-488z" />
    <glyph glyph-name="three" unicode="3" horiz-adv-x="606" 
d="M250 -12q-90 0 -150.5 37t-89.5 100l43 24q28 -54 76.5 -84t123.5 -30q46 0 85.5 13t68 36.5t45 55.5t16.5 71q0 68 -53.5 100.5t-142.5 32.5h-29l-11 26l312 281h-375l14 49h450l-10 -37l-307 -277q42 -2 79.5 -13.5t66 -33t45 -52.5t16.5 -72q0 -50 -22 -91.5
t-59.5 -71.5t-87 -47t-104.5 -17z" />
    <glyph glyph-name="four" unicode="4" horiz-adv-x="645" 
d="M427 216l109 406l-437 -406h328zM415 171h-379l-8 39l533 495h48l-131 -489h114l-12 -45h-114l-46 -171h-51z" />
    <glyph glyph-name="five" unicode="5" horiz-adv-x="601" 
d="M252 -12q-45 0 -81 10t-65 27t-51 39.5t-39 48.5l43 27q33 -49 80 -78t116 -29q51 0 93 16.5t71.5 43.5t45.5 62.5t16 73.5q0 36 -13 64t-35.5 47t-53 29t-66.5 10t-77.5 -10.5t-83.5 -33.5l-33 26l111 339h378l-14 -50h-332l-86 -257q11 6 28 12t36 10.5t38.5 7.5
t34.5 3q51 0 92 -13.5t70 -39t44.5 -61.5t15.5 -81q0 -49 -20.5 -93t-57.5 -77.5t-89 -53t-116 -19.5z" />
    <glyph glyph-name="six" unicode="6" horiz-adv-x="640" 
d="M320 34q46 0 84 16t66 43t43.5 63t15.5 75q0 28 -10.5 55.5t-31.5 50t-53.5 36.5t-77.5 14q-48 0 -87.5 -16t-67.5 -42t-43.5 -59.5t-15.5 -68.5q0 -38 12 -67t34 -51q26 -26 60 -37.5t72 -11.5zM317 -12q-51 0 -94 17.5t-72 46.5q-32 32 -50 78.5t-18 114.5
q0 58 10.5 111.5t29.5 100t44.5 86t55.5 69.5q100 100 224 100q70 0 119.5 -25.5t84.5 -67.5l-38 -33q-31 35 -71.5 57t-97.5 22q-99 0 -181 -82q-24 -24 -45 -54.5t-37 -65t-26.5 -72t-13.5 -74.5q16 24 37.5 45t49 37.5t60.5 26t71 9.5q53 0 95 -17t70.5 -45t43.5 -65
t15 -77q0 -49 -20 -93t-55.5 -77.5t-84 -53t-106.5 -19.5z" />
    <glyph glyph-name="seven" unicode="7" horiz-adv-x="578" 
d="M551 650h-403l14 50h464l-11 -38l-475 -662h-60z" />
    <glyph glyph-name="eight" unicode="8" horiz-adv-x="641" 
d="M298 37q49 0 89.5 11.5t69 32.5t44 49.5t15.5 62.5q0 28 -14 54.5t-40 46t-63.5 31.5t-84.5 12q-51 0 -92 -13t-69.5 -34.5t-43.5 -50.5t-15 -60t14.5 -57t41 -45t64 -29.5t84.5 -10.5zM375 380q49 0 86.5 13t62.5 34t37.5 47.5t12.5 53.5q0 30 -13 54.5t-36.5 42.5
t-56.5 28t-72 10q-44 0 -80 -11.5t-61.5 -31t-39.5 -46.5t-14 -58q0 -29 12.5 -54t35.5 -43t55 -28.5t71 -10.5zM295 -10q-58 0 -105 14.5t-80.5 39.5t-51.5 58t-18 71q0 42 16.5 76t45.5 58.5t68 40.5t84 23q-44 16 -75.5 54t-31.5 95q0 41 19.5 75.5t53 60t79 40
t97.5 14.5q51 0 93.5 -13t73 -37t48 -57t17.5 -72q0 -37 -14.5 -67.5t-39.5 -53.5t-57.5 -38.5t-69.5 -22.5q23 -8 45 -22.5t39.5 -34.5t28 -45.5t10.5 -55.5q0 -44 -21 -81t-58 -63.5t-87.5 -41.5t-108.5 -15z" />
    <glyph glyph-name="nine" unicode="9" horiz-adv-x="640" 
d="M335 304q46 0 85 16.5t67.5 44t44 63t15.5 72.5q0 69 -46 115q-26 26 -60 38t-72 12q-46 0 -84.5 -16.5t-66 -44t-43.5 -64t-16 -76.5q0 -29 10 -57.5t31.5 -51.5t54.5 -37t80 -14zM243 -13q-67 0 -120 27t-90 72l38 33q35 -39 76.5 -62t98.5 -23q98 0 180 82
q48 48 82 118t40 145q-15 -22 -35.5 -44t-47.5 -39.5t-61 -28.5t-76 -11q-53 0 -95 17t-70.5 46t-43 66.5t-14.5 78.5q0 49 20.5 94t56 79t84.5 54t107 20q51 0 93.5 -17.5t71.5 -46.5q32 -32 50 -78.5t18 -114.5q0 -58 -10.5 -111.5t-29.5 -100t-44.5 -86t-55.5 -69.5
q-50 -50 -105 -75t-118 -25z" />
    <glyph glyph-name="colon" unicode=":" horiz-adv-x="241" 
d="M42 85h66l-23 -85h-66zM156 510h66l-23 -85h-66z" />
    <glyph glyph-name="semicolon" unicode=";" horiz-adv-x="241" 
d="M-34 -82q37 13 56 33t24 49h-27l23 85h66l-20 -74q-8 -26 -17.5 -45t-23 -32.5t-31.5 -23t-43 -16.5zM156 510h66l-23 -85h-66z" />
    <glyph glyph-name="semicolon" unicode="&#x37e;" horiz-adv-x="241" 
d="M-34 -82q37 13 56 33t24 49h-27l23 85h66l-20 -74q-8 -26 -17.5 -45t-23 -32.5t-31.5 -23t-43 -16.5zM156 510h66l-23 -85h-66z" />
    <glyph glyph-name="less" unicode="&#x3c;" horiz-adv-x="640" 
d="M78 332l11 40l529 241l-15 -59l-458 -206l347 -208l-14 -49z" />
    <glyph glyph-name="equal" unicode="=" horiz-adv-x="640" 
d="M95 265h454l-14 -51h-454zM155 490h454l-13 -51h-454z" />
    <glyph glyph-name="greater" unicode="&#x3e;" horiz-adv-x="640" 
d="M66 150l458 206l-347 208l14 49l400 -241l-11 -40l-529 -241z" />
    <glyph glyph-name="question" unicode="?" horiz-adv-x="534" 
d="M151 85h66l-23 -85h-66zM224 345l7 5q55 4 101 18t79 37.5t51.5 55.5t18.5 72q0 31 -12 55.5t-32.5 40.5t-48.5 24.5t-59 8.5q-61 0 -111.5 -27t-84.5 -61l-32 34q20 20 44.5 38.5t53.5 32.5t62.5 22t71.5 8q46 0 83.5 -13t63.5 -36.5t40 -55.5t14 -70q0 -50 -21.5 -88.5
t-58 -66.5t-84.5 -46t-101 -25l-43 -125h-32z" />
    <glyph glyph-name="at" unicode="@" horiz-adv-x="980" 
d="M445 118q38 0 75 17.5t66 46.5t47 66.5t18 76.5q0 57 -34 93.5t-94 36.5q-39 0 -73.5 -17.5t-60 -47t-40.5 -68.5t-15 -83q0 -58 31.5 -89.5t79.5 -31.5zM486 -161q-96 0 -173.5 28t-132 79.5t-84.5 123.5t-30 161q0 97 38.5 184t105.5 153t156.5 105t190.5 39
q93 0 165.5 -27.5t123 -75t76.5 -112t26 -138.5q0 -71 -19.5 -124.5t-50 -89.5t-67 -54t-69.5 -18q-54 0 -84 27t-37 73q-80 -102 -186 -102q-33 0 -61.5 11.5t-49.5 33t-33.5 52t-12.5 69.5q0 55 21 103t55 84t78 57t89 21q32 0 57 -9t44 -24t32 -34.5t21 -40.5l30 98
l47 -13l-75 -242q-8 -26 -7.5 -49t9 -40.5t25.5 -27.5t43 -10q25 0 54 15t54 45.5t41.5 77.5t16.5 111q0 67 -24 125.5t-70 102t-112 68.5t-150 25q-94 0 -177 -36.5t-145 -98t-98 -143t-36 -171.5q0 -81 27.5 -147.5t77.5 -113.5t121.5 -73t158.5 -26q57 0 106.5 11
t100.5 34l14 -29q-54 -25 -107 -36.5t-114 -11.5z" />
    <glyph glyph-name="A" unicode="A" horiz-adv-x="759" 
d="M569 243l-75 405l-294 -405h369zM481 705h50l137 -705h-53l-36 196h-413l-142 -196h-58z" />
    <glyph glyph-name="B" unicode="B" horiz-adv-x="717" 
d="M354 48q54 0 97.5 11t74 31t47 49.5t16.5 66.5q0 31 -14 54t-39 38.5t-58.5 23t-73.5 7.5h-228l-75 -281h253zM405 377q53 0 96.5 11.5t74 32.5t47 50.5t16.5 64.5q0 58 -43 87t-118 29h-215l-74 -275h216zM224 700h259q48 0 86.5 -11t66 -31t42.5 -50t15 -67
q0 -39 -14.5 -70.5t-39.5 -55.5t-59 -40t-72 -23q27 -7 51.5 -19t43 -30t29 -42t10.5 -55q0 -45 -20 -83t-58 -65t-92 -42.5t-121 -15.5h-315z" />
    <glyph glyph-name="C" unicode="C" horiz-adv-x="738" 
d="M378 -13q-58 0 -110 19.5t-91 56t-62 89.5t-23 119q0 85 33 164.5t89.5 141t132.5 98.5t163 37q48 0 88 -11.5t72.5 -32t56.5 -48t40 -59.5l-45 -24q-17 29 -37 53t-46 40.5t-58.5 25.5t-73.5 9q-76 0 -142 -33.5t-114.5 -88.5t-76.5 -125.5t-28 -144.5q0 -55 18 -99
t49.5 -75t75 -47.5t94.5 -16.5q78 0 133.5 28.5t103.5 76.5l35 -32q-24 -25 -52 -47t-62 -38.5t-74.5 -26t-88.5 -9.5z" />
    <glyph glyph-name="D" unicode="D" horiz-adv-x="771" 
d="M272 48q95 0 173.5 31t136.5 89q45 45 69.5 104.5t24.5 129.5q0 108 -65 171q-39 39 -98.5 59t-134.5 20h-115l-162 -604h171zM224 700h157q82 0 153 -23t119 -71q37 -37 57 -86t20 -114q0 -81 -28 -149.5t-81 -121.5q-63 -63 -155 -99t-201 -36h-229z" />
    <glyph glyph-name="E" unicode="E" horiz-adv-x="649" 
d="M224 700h493l-13 -48h-441l-74 -275h396l-13 -48h-396l-75 -281h446l-13 -48h-498z" />
    <glyph glyph-name="F" unicode="F" horiz-adv-x="656" 
d="M224 700h493l-13 -48h-441l-77 -287h396l-13 -48h-396l-85 -317h-52z" />
    <glyph glyph-name="G" unicode="G" horiz-adv-x="786" 
d="M396 -13q-65 0 -120.5 21t-96 59t-63 92.5t-22.5 122.5q0 81 32.5 158.5t89.5 137.5t135 97t170 37q54 0 94.5 -11t71.5 -29t52.5 -41.5t37.5 -48.5l-41 -27q-15 23 -34 43t-45 35t-60.5 23.5t-80.5 8.5q-79 0 -146.5 -33t-116.5 -86.5t-77 -122t-28 -139.5
q0 -59 18.5 -105t51.5 -78.5t79 -49.5t102 -17q63 0 113.5 16t88.5 41l64 224h-233l13 48h284l-86 -301q-57 -37 -116 -56t-131 -19z" />
    <glyph glyph-name="H" unicode="H" horiz-adv-x="756" 
d="M224 700h52l-87 -324h443l87 324h52l-188 -700h-52l88 328h-443l-88 -328h-52z" />
    <glyph glyph-name="I" unicode="I" horiz-adv-x="274" 
d="M231 700h52l-188 -700h-52z" />
    <glyph glyph-name="J" unicode="J" horiz-adv-x="538" 
d="M196 -10q-44 0 -77.5 12.5t-58 34.5t-40.5 51.5t-25 62.5l46 16q20 -64 56 -97t97 -33q75 0 127 52q27 27 45.5 65t32.5 88l123 458h52l-125 -465q-16 -60 -38 -103t-55 -76q-32 -32 -74.5 -49t-85.5 -17z" />
    <glyph glyph-name="K" unicode="K" horiz-adv-x="714" 
d="M224 700h52l-122 -455l560 455h77l-389 -313l212 -387h-60l-195 357l-224 -182l-47 -175h-52z" />
    <glyph glyph-name="L" unicode="L" horiz-adv-x="600" 
d="M224 700h52l-175 -652h411l-13 -48h-463z" />
    <glyph glyph-name="M" unicode="M" horiz-adv-x="869" 
d="M224 700h43l170 -414l392 414h55l-188 -700h-52l163 608l-385 -403h-4l-169 403l-163 -608h-50z" />
    <glyph glyph-name="N" unicode="N" horiz-adv-x="786" 
d="M224 700h48l315 -613l165 613h50l-188 -700h-38l-322 626l-168 -626h-50z" />
    <glyph glyph-name="O" unicode="O" horiz-adv-x="846" 
d="M398 34q74 0 137.5 32t110.5 84.5t74 120.5t27 140q0 54 -18 100t-50.5 80.5t-78 54t-101.5 19.5q-74 0 -137.5 -32t-110.5 -84.5t-74 -120.5t-27 -140q0 -54 18 -100t50.5 -80.5t78 -54t101.5 -19.5zM398 -13q-66 0 -121.5 23.5t-95.5 64t-62.5 95.5t-22.5 118
q0 82 31.5 158.5t86.5 135.5t128 94.5t157 35.5q66 0 121.5 -23.5t95.5 -64t62.5 -95.5t22.5 -118q0 -82 -31.5 -158.5t-86.5 -135.5t-128 -94.5t-157 -35.5z" />
    <glyph glyph-name="P" unicode="P" horiz-adv-x="663" 
d="M339 309q142 0 217 52t75 149q0 57 -36 93q-49 49 -154 49h-178l-92 -343h168zM224 700h218q63 0 112 -15.5t81 -47.5q48 -48 48 -125q0 -60 -24.5 -106.5t-69.5 -78.5t-109 -48.5t-143 -16.5h-178l-71 -262h-52z" />
    <glyph glyph-name="Q" unicode="Q" horiz-adv-x="846" 
d="M398 34q54 0 101.5 17t88.5 46l-117 130l38 33l114 -134q58 54 91 129t33 156q0 54 -18 100t-50.5 80.5t-78 54t-101.5 19.5q-74 0 -137.5 -32t-110.5 -84.5t-74 -120.5t-27 -140q0 -54 18 -100t50.5 -80.5t78 -54t101.5 -19.5zM620 61q-48 -35 -104 -54.5t-118 -19.5
q-66 0 -121.5 23.5t-95.5 64t-62.5 95.5t-22.5 118q0 82 31.5 158.5t86.5 135.5t128 94.5t157 35.5q66 0 121.5 -23.5t95.5 -64t62.5 -95.5t22.5 -118q0 -92 -39.5 -176.5t-106.5 -144.5l75 -82l-38 -32z" />
    <glyph glyph-name="R" unicode="R" horiz-adv-x="713" 
d="M388 337q78 0 133 19.5t87 51.5q47 47 47 113q0 52 -31 83q-23 23 -60 35.5t-91 12.5h-210l-85 -315h210zM224 700h251q126 0 188 -62q44 -44 44 -114q0 -44 -16.5 -80.5t-45.5 -65.5q-35 -35 -88.5 -55.5t-117.5 -27.5l154 -295h-60l-150 290h-217l-78 -290h-52z" />
    <glyph glyph-name="S" unicode="S" horiz-adv-x="638" 
d="M299 -10q-96 0 -165.5 36t-113.5 98l40 29q45 -58 102.5 -87t141.5 -29q43 0 80 11.5t64 32t42.5 48.5t15.5 61q0 23 -8 41.5t-26 35t-47.5 32t-71.5 32.5q-54 21 -92 40.5t-62 41t-35 47t-11 57.5q0 40 18 75t51 61t79 41.5t103 15.5q79 0 142 -30t101 -77l-40 -32
q-38 45 -90 68.5t-118 23.5q-45 0 -81 -12t-60.5 -31.5t-38 -45t-13.5 -53.5q0 -24 10 -43.5t30.5 -36t52 -32t74.5 -31.5q49 -18 84 -37t57.5 -41t33.5 -48t11 -58q0 -43 -19.5 -80t-54 -64.5t-82.5 -43.5t-104 -16z" />
    <glyph glyph-name="T" unicode="T" horiz-adv-x="615" 
d="M384 652h-244l13 48h540l-13 -48h-244l-175 -652h-52z" />
    <glyph glyph-name="U" unicode="U" horiz-adv-x="756" 
d="M348 -11q-63 0 -110.5 17t-79 46.5t-47 69.5t-15.5 87q0 29 3.5 55.5t10.5 52.5l102 383h52l-108 -407q-4 -15 -6.5 -36t-2.5 -44q0 -38 12.5 -70t37.5 -56t63.5 -37.5t91.5 -13.5q47 0 91 18t80 54q29 29 55 75.5t43 110.5l109 406h52l-112 -417q-18 -67 -46 -118
t-65 -88q-43 -43 -96.5 -65.5t-114.5 -22.5z" />
    <glyph glyph-name="V" unicode="V" horiz-adv-x="714" 
d="M142 700h54l99 -644l446 644h59l-495 -705h-46z" />
    <glyph glyph-name="W" unicode="W" horiz-adv-x="1074" 
d="M150 700h54l53 -623l372 625h40l38 -625l387 623h58l-443 -705h-42l-42 608l-368 -608h-42z" />
    <glyph glyph-name="X" unicode="X" horiz-adv-x="692" 
d="M343 362l-186 338h56l167 -308l310 308h67l-352 -347l192 -353h-56l-173 323l-324 -323h-67z" />
    <glyph glyph-name="Y" unicode="Y" horiz-adv-x="668" 
d="M310 284l-183 416h57l161 -376l364 376h70l-421 -429l-72 -271h-52z" />
    <glyph glyph-name="Z" unicode="Z" horiz-adv-x="662" 
d="M-11 29l636 624h-452l13 47h533l-8 -29l-636 -624h472l-13 -47h-553z" />
    <glyph glyph-name="bracketleft" unicode="[" horiz-adv-x="430" 
d="M239 700h273l-11 -38h-227l-202 -754h227l-10 -38h-273z" />
    <glyph glyph-name="backslash" unicode="\" 
d="M147 798h44l221 -926h-44z" />
    <glyph glyph-name="bracketright" unicode="]" horiz-adv-x="430" 
d="M-56 -92h227l202 754h-227l10 38h273l-223 -830h-273z" />
    <glyph glyph-name="asciicircum" unicode="^" 
d="M343 703h44l102 -210h-47l-83 167l-173 -167h-57z" />
    <glyph glyph-name="underscore" unicode="_" horiz-adv-x="600" 
d="M-102 -116h605l-12 -44h-605z" />
    <glyph glyph-name="grave" unicode="`" 
d="M289 698l62 30l52 -133h-35z" />
    <glyph glyph-name="a" unicode="a" horiz-adv-x="571" 
d="M199 33q36 0 72 12t67.5 34.5t54.5 53.5t34 70l12 45q-39 10 -87.5 17t-105.5 7q-38 0 -69.5 -10t-54 -28t-35 -42.5t-12.5 -54.5q0 -48 33.5 -76t90.5 -28zM190 -12q-32 0 -62 9t-53.5 27t-37.5 44.5t-14 62.5q0 42 17 76.5t47.5 58.5t73 37t92.5 13q55 0 106.5 -9
t89.5 -20l4 14q3 11 5 25.5t2 25.5q0 58 -39.5 89t-114.5 31q-42 0 -76.5 -7t-71.5 -20l-9 44q38 14 75.5 21.5t85.5 7.5q94 0 146 -42.5t52 -116.5q0 -14 -2.5 -32t-7.5 -35l-78 -292h-48l23 88q-37 -44 -87.5 -72t-117.5 -28z" />
    <glyph glyph-name="b" unicode="b" horiz-adv-x="654" 
d="M310 33q52 0 95.5 22t75 59t49 85.5t17.5 101.5q0 39 -11.5 71.5t-32.5 55.5t-50 35.5t-64 12.5q-48 0 -93.5 -22.5t-81.5 -59t-58 -84.5t-22 -99q0 -37 12.5 -69.5t36 -56.5t56 -38t71.5 -14zM312 -13q-43 0 -76.5 12t-58 32t-41.5 46t-27 53l-35 -130h-49l196 730h49
l-87 -320q38 46 91 79t121 33q44 0 81.5 -16t65 -44.5t43 -68t15.5 -86.5q0 -68 -23.5 -126.5t-63.5 -101.5t-92 -67.5t-109 -24.5z" />
    <glyph glyph-name="c" unicode="c" horiz-adv-x="563" 
d="M272 -12q-42 0 -82 14.5t-71 43t-50 69t-19 93.5q0 63 24 119.5t65.5 100t96 69t114.5 25.5q39 0 71 -10t56.5 -27.5t42.5 -39.5t30 -46l-41 -23q-12 20 -26.5 38.5t-34 32t-44.5 21.5t-57 8q-49 0 -93 -21.5t-77.5 -58.5t-53.5 -85t-20 -100q0 -43 14.5 -76t38.5 -55.5
t55 -34t64 -11.5q50 0 90 20t75 53l33 -32q-39 -38 -88.5 -62.5t-112.5 -24.5z" />
    <glyph glyph-name="d" unicode="d" horiz-adv-x="654" 
d="M265 33q48 0 93.5 22.5t81.5 59t58 84.5t22 99q0 37 -12.5 69.5t-36 56.5t-56 38t-71.5 14q-52 0 -95.5 -22t-75 -59t-49 -85.5t-17.5 -101.5q0 -39 11.5 -71.5t32.5 -55.5t50 -35.5t64 -12.5zM259 -13q-44 0 -81.5 16t-65 44.5t-43 68t-15.5 86.5q0 68 23.5 126.5
t63.5 101.5t92 67.5t109 24.5q43 0 76.5 -12t58 -32t41.5 -46t27 -53l94 351h49l-195 -730h-49l26 99q-38 -46 -90.5 -79t-120.5 -33z" />
    <glyph glyph-name="e" unicode="e" horiz-adv-x="583" 
d="M484 282q2 7 3 17.5t1 24.5q0 31 -8.5 58.5t-26.5 48.5t-45 33.5t-64 12.5q-43 0 -80 -15.5t-67 -42.5t-51 -62.5t-32 -74.5h370zM105 238q-1 -8 -1.5 -17t-0.5 -17q0 -39 12.5 -70t34.5 -53.5t53 -34.5t69 -12q58 0 97.5 19t76.5 49l29 -35q-40 -33 -87 -56t-116 -23
q-49 0 -89.5 15.5t-70 44t-46 68t-16.5 86.5q0 60 22.5 117.5t62.5 102.5t94 72.5t116 27.5q48 0 84 -15.5t60.5 -42.5t36.5 -62.5t12 -74.5q0 -49 -14 -89h-419z" />
    <glyph glyph-name="f" unicode="f" horiz-adv-x="362" 
d="M180 465h-74l12 45h74l20 74q39 146 163 146q29 0 55 -6.5t47 -17.5l-12 -44q-26 12 -46.5 18t-45.5 6q-40 0 -70 -26.5t-45 -86.5l-17 -63h184l-12 -45h-184l-125 -465h-49z" />
    <glyph glyph-name="g" unicode="g" horiz-adv-x="654" 
d="M282 84q48 0 92 19.5t78 51.5t54 73t20 84q0 30 -12 59.5t-35.5 52.5t-56.5 37t-75 14q-45 0 -87 -17t-74.5 -48.5t-52.5 -75t-20 -95.5q0 -38 14.5 -67t38 -48.5t54 -29.5t62.5 -10zM236 -162q-68 0 -131.5 25.5t-109.5 69.5l36 36q41 -38 92.5 -61.5t114.5 -23.5
q54 0 93 16t64 41q26 26 42 58.5t28 75.5l18 64q-19 -20 -41.5 -38.5t-48.5 -32.5t-56 -22t-64 -8q-41 0 -79.5 13.5t-68 39t-47.5 62t-18 83.5q0 64 25 116.5t65.5 90t92.5 58.5t106 21q44 0 76.5 -12t56 -31t39.5 -43.5t27 -49.5l33 124h49l-119 -447q-14 -53 -34 -89.5
t-46 -62.5q-36 -36 -83.5 -54.5t-111.5 -18.5z" />
    <glyph glyph-name="h" unicode="h" horiz-adv-x="609" 
d="M221 730h49l-85 -315q19 22 39.5 42t43.5 34t50.5 22.5t59.5 8.5q76 0 121.5 -44t45.5 -118q0 -17 -3 -35.5t-8 -36.5l-76 -288h-49l78 292q4 14 6 31.5t2 31.5q0 57 -35 90t-96 33q-33 0 -66 -14t-62 -39.5t-51.5 -60t-33.5 -76.5l-77 -288h-49z" />
    <glyph glyph-name="i" unicode="i" horiz-adv-x="250" 
d="M169 510h49l-137 -510h-49zM217 710h61l-18 -67h-61z" />
    <glyph glyph-name="j" unicode="j" horiz-adv-x="249" 
d="M-52 -163q-17 0 -31 2t-32 8l12 44q11 -3 23.5 -5.5t23.5 -2.5q26 0 45.5 16.5t29.5 52.5l150 558h49l-151 -562q-14 -53 -45 -82t-74 -29zM217 710h61l-18 -67h-61z" />
    <glyph glyph-name="k" unicode="k" horiz-adv-x="560" 
d="M221 730h49l-145 -541l396 321h71l-284 -228l152 -282h-57l-136 252l-160 -128l-33 -124h-49z" />
    <glyph glyph-name="l" unicode="l" horiz-adv-x="250" 
d="M228 730h49l-196 -730h-49z" />
    <glyph glyph-name="m" unicode="m" horiz-adv-x="951" 
d="M161 510h49l-25 -95q19 23 38.5 42.5t41 34t47 22.5t56.5 8q34 0 60.5 -11t44.5 -28.5t29 -40t15 -45.5q35 57 88.5 91t125.5 34q34 0 63.5 -12t50.5 -33.5t33 -51t12 -65.5q0 -17 -4 -35.5t-9 -36.5l-76 -288h-49l78 292q4 14 6 31.5t2 31.5q0 57 -32.5 90t-88.5 33
q-31 0 -62.5 -14.5t-59 -40t-49 -60t-32.5 -75.5l-76 -288h-49l78 292q4 14 6 31.5t2 31.5q0 57 -32.5 90t-88.5 33q-31 0 -62.5 -14.5t-59 -40t-49 -60t-32.5 -75.5l-77 -288h-49z" />
    <glyph glyph-name="n" unicode="n" horiz-adv-x="611" 
d="M161 510h49l-25 -95q19 22 39.5 42t43.5 34t50.5 22.5t59.5 8.5q76 0 121.5 -44t45.5 -118q0 -17 -3 -35.5t-8 -36.5l-76 -288h-49l78 292q4 14 6 31.5t2 31.5q0 57 -35 90t-96 33q-33 0 -66 -14t-62 -39.5t-51.5 -60t-33.5 -76.5l-77 -288h-49z" />
    <glyph glyph-name="o" unicode="o" horiz-adv-x="633" 
d="M283 34q46 0 90.5 21t78.5 56.5t55 82.5t21 100q0 87 -49.5 134.5t-129.5 47.5q-48 0 -92.5 -21.5t-78.5 -57.5t-54 -83t-20 -98q0 -87 49.5 -134.5t129.5 -47.5zM278 -12q-51 0 -92.5 17t-71.5 47t-46.5 71.5t-16.5 90.5q0 60 24.5 116t66 98.5t96.5 68t116 25.5
q51 0 92.5 -17t71.5 -47t46.5 -71.5t16.5 -90.5q0 -62 -25 -118t-67 -98t-97 -67t-114 -25z" />
    <glyph glyph-name="p" unicode="p" horiz-adv-x="654" 
d="M310 33q52 0 95.5 22t75 59t49 85.5t17.5 101.5q0 39 -11.5 71.5t-32.5 55.5t-50 35.5t-64 12.5q-48 0 -93.5 -22.5t-81.5 -59t-58 -84.5t-22 -99q0 -37 12.5 -69.5t36 -56.5t56 -38t71.5 -14zM161 510h49l-27 -100q38 46 91 79t121 33q44 0 81.5 -16t65 -44.5t43 -68
t15.5 -86.5q0 -68 -23.5 -126.5t-63.5 -101.5t-92 -67.5t-109 -24.5q-43 0 -76.5 12t-58 32t-41.5 46t-27 53l-78 -290h-49z" />
    <glyph glyph-name="q" unicode="q" horiz-adv-x="654" 
d="M265 33q48 0 93.5 22.5t81.5 59.5t58 85t22 99q0 37 -12.5 69t-36 56t-56 38t-71.5 14q-52 0 -95.5 -22t-75 -59t-49 -85.5t-17.5 -101.5q0 -39 11.5 -71.5t32.5 -55.5t50 -35.5t64 -12.5zM471 100q-38 -46 -91 -79.5t-121 -33.5q-44 0 -81.5 16t-65 44.5t-43 68
t-15.5 86.5q0 68 23.5 126.5t63.5 101.5t92 67.5t109 24.5q43 0 76.5 -12t58 -31.5t41.5 -45.5t27 -53l35 130h49l-189 -710h-49z" />
    <glyph glyph-name="r" unicode="r" horiz-adv-x="396" 
d="M161 510h49l-38 -145q25 35 54 64.5t61.5 49.5t69 30.5t77.5 8.5l-14 -54h-4q-44 0 -88.5 -17t-83 -49.5t-68.5 -80t-46 -108.5l-56 -209h-49z" />
    <glyph glyph-name="s" unicode="s" horiz-adv-x="495" 
d="M217 -11q-60 0 -116 22t-100 66l35 35q42 -41 89 -59.5t98 -18.5q24 0 48 7t42.5 20.5t30 32t11.5 41.5q0 15 -5 28t-17.5 25t-34 24t-54.5 24q-73 27 -108 57t-35 80q0 30 13.5 57t38 47.5t59.5 32t78 11.5q54 0 103 -20.5t81 -47.5l-32 -37q-29 24 -70.5 42t-86.5 18
q-32 0 -57 -8t-41.5 -21.5t-25 -30.5t-8.5 -35q0 -15 4.5 -27t17.5 -23.5t35 -23.5t58 -26q38 -15 64.5 -30t43 -31.5t24 -35t7.5 -41.5q0 -33 -15 -61.5t-41 -49t-60.5 -32t-73.5 -11.5z" />
    <glyph glyph-name="t" unicode="t" horiz-adv-x="396" 
d="M206 -9q-51 0 -86.5 24t-35.5 77q0 12 2 25.5t4 23.5l87 324h-74l12 45h74l44 163h49l-44 -163h176l-12 -45h-176l-87 -325q-2 -10 -3.5 -22t-1.5 -21q0 -32 22.5 -46.5t60.5 -14.5q32 0 74 16l-13 -48q-20 -8 -36 -10.5t-36 -2.5z" />
    <glyph glyph-name="u" unicode="u" horiz-adv-x="609" 
d="M231 -12q-76 0 -121.5 44t-45.5 118q0 17 3 35.5t8 36.5l76 288h49l-78 -292q-4 -14 -6 -31.5t-2 -31.5q0 -57 35 -90t96 -33q33 0 66 14t62 39.5t51.5 60t33.5 76.5l77 288h49l-136 -510h-49l25 95q-19 -23 -39.5 -42.5t-43.5 -33.5t-50.5 -22.5t-59.5 -8.5z" />
    <glyph glyph-name="v" unicode="v" horiz-adv-x="557" 
d="M89 510h53l71 -455l313 455h59l-364 -514h-42z" />
    <glyph glyph-name="w" unicode="w" horiz-adv-x="845" 
d="M99 510h50l37 -444l273 446h39l35 -446l275 444h54l-325 -514h-43l-35 437l-270 -437h-41z" />
    <glyph glyph-name="x" unicode="x" horiz-adv-x="559" 
d="M255 264l-135 246h56l112 -215l224 215h66l-268 -250l141 -260h-56l-118 229l-240 -229h-66z" />
    <glyph glyph-name="y" unicode="y" horiz-adv-x="568" 
d="M20 -163q-58 0 -108 35l27 40q16 -13 41.5 -21t45.5 -8q39 0 77.5 26t85.5 94l-104 507h52l89 -456l307 456h59l-363 -528q-56 -80 -105 -112.5t-104 -32.5z" />
    <glyph glyph-name="z" unicode="z" horiz-adv-x="546" 
d="M-9 28l475 438h-344l12 44h424l-8 -28l-475 -438h361l-12 -44h-441z" />
    <glyph glyph-name="braceleft" unicode="{" horiz-adv-x="480" 
d="M312 -141q-44 9 -74 26.5t-48.5 39.5t-27 48t-8.5 53q0 13 1 24.5t4 25t7.5 30.5t10.5 40q9 31 9 55q0 32 -21.5 49.5t-73.5 17.5h-26l10 38h26q39 0 66.5 10t47 32t32.5 57t23 85q10 49 27 89t47.5 69t78 46t118.5 21l-3 -37q-56 -3 -94 -17t-63.5 -39t-40 -59.5
t-22.5 -77.5q-10 -53 -23 -88.5t-31 -58.5t-42.5 -35t-56.5 -18q69 -21 69 -83q0 -11 -2 -26.5t-7 -30.5q-8 -26 -15 -57.5t-7 -57.5q0 -50 27.5 -85.5t95.5 -54.5z" />
    <glyph glyph-name="bar" unicode="|" horiz-adv-x="286" 
d="M141 798h44v-926h-44v926z" />
    <glyph glyph-name="braceright" unicode="}" horiz-adv-x="480" 
d="M-41 -104q55 3 93.5 17t64 39t40 59t22.5 78q10 52 23 88t31 59t42.5 35t56.5 18q-69 21 -69 83q0 11 2 26.5t7 30.5q8 26 15 57.5t7 57.5q0 49 -27.5 85t-95.5 55l14 31q43 -9 73.5 -26.5t49 -39.5t27 -48t8.5 -53q0 -13 -1 -24.5t-4 -25t-7.5 -30.5t-10.5 -40
q-9 -32 -9 -55q0 -32 21.5 -49.5t73.5 -17.5h26l-10 -38h-26q-39 0 -66.5 -10t-47 -32t-32.5 -57t-23 -85t-27 -89.5t-48 -68.5t-78.5 -46t-117.5 -21z" />
    <glyph glyph-name="asciitilde" unicode="~" horiz-adv-x="460" 
d="M87 260q24 49 48 72.5t56 23.5q23 0 36.5 -9.5t30.5 -25.5t26 -23t22 -7q16 0 29 15t30 45l38 -15q-24 -49 -48 -72.5t-56 -23.5q-23 0 -36.5 9.5t-30.5 25.5t-26 23t-22 7q-16 0 -29 -15t-30 -45z" />
    <glyph glyph-name="Adieresis" unicode="&#xc4;" horiz-adv-x="759" 
d="M434 845h69l-22 -80h-69zM597 845h69l-22 -80h-69zM569 243l-75 405l-294 -405h369zM481 705h50l137 -705h-53l-36 196h-413l-142 -196h-58z" />
    <glyph glyph-name="Aring" unicode="&#xc5;" horiz-adv-x="759" 
d="M579 243l-75 405l-294 -405h369zM524 702q29 0 49.5 20.5t20.5 49.5q0 22 -15.5 36t-44.5 14t-49.5 -20.5t-20.5 -49.5q0 -22 15.5 -36t44.5 -14zM474 681q-46 22 -46 71q0 21 8.5 40t23 32.5t34 21.5t40.5 8q43 0 69.5 -23.5t26.5 -58.5q0 -37 -24 -64.5t-59 -35.5
l131 -672h-53l-36 196h-413l-142 -196h-58z" />
    <glyph glyph-name="Ccedilla" unicode="&#xc7;" horiz-adv-x="738" 
d="M271 -148l-48 26l107 113q-50 7 -93.5 29.5t-75.5 58.5t-50.5 84.5t-18.5 107.5q0 85 33 164.5t89.5 141t132.5 98.5t163 37q48 0 88 -11.5t72.5 -32t56.5 -48t40 -59.5l-45 -24q-17 29 -37 53t-46 40.5t-58.5 25.5t-73.5 9q-76 0 -142 -33.5t-114.5 -88.5t-76.5 -125.5
t-28 -144.5q0 -55 18 -99t49.5 -75t75 -47.5t94.5 -16.5q78 0 133.5 28.5t103.5 76.5l35 -32q-24 -25 -52 -47t-62 -38.5t-74.5 -26t-88.5 -9.5h-4z" />
    <glyph glyph-name="Eacute" unicode="&#xc9;" horiz-adv-x="649" 
d="M537 898l62 -30l-135 -103h-51zM224 700h493l-13 -48h-441l-74 -275h396l-13 -48h-396l-75 -281h446l-13 -48h-498z" />
    <glyph glyph-name="Ntilde" unicode="&#xd1;" horiz-adv-x="786" 
d="M369 778q24 49 48 72.5t56 23.5q23 0 36.5 -9.5t30.5 -25.5t26 -23t22 -7q16 0 29 15t30 45l38 -15q-24 -49 -48 -72.5t-56 -23.5q-23 0 -36.5 9.5t-30.5 25.5t-26 23t-22 7q-16 0 -29 -15t-30 -45zM224 700h48l315 -613l165 613h50l-188 -700h-38l-322 626l-168 -626
h-50z" />
    <glyph glyph-name="Odieresis" unicode="&#xd6;" horiz-adv-x="846" 
d="M443 845h69l-22 -80h-69zM606 845h69l-22 -80h-69zM398 34q74 0 137.5 32t110.5 84.5t74 120.5t27 140q0 54 -18 100t-50.5 80.5t-78 54t-101.5 19.5q-74 0 -137.5 -32t-110.5 -84.5t-74 -120.5t-27 -140q0 -54 18 -100t50.5 -80.5t78 -54t101.5 -19.5zM398 -13
q-66 0 -121.5 23.5t-95.5 64t-62.5 95.5t-22.5 118q0 82 31.5 158.5t86.5 135.5t128 94.5t157 35.5q66 0 121.5 -23.5t95.5 -64t62.5 -95.5t22.5 -118q0 -82 -31.5 -158.5t-86.5 -135.5t-128 -94.5t-157 -35.5z" />
    <glyph glyph-name="Udieresis" unicode="&#xdc;" horiz-adv-x="756" 
d="M414 845h69l-22 -80h-69zM577 845h69l-22 -80h-69zM348 -11q-63 0 -110.5 17t-79 46.5t-47 69.5t-15.5 87q0 29 3.5 55.5t10.5 52.5l102 383h52l-108 -407q-4 -15 -6.5 -36t-2.5 -44q0 -38 12.5 -70t37.5 -56t63.5 -37.5t91.5 -13.5q47 0 91 18t80 54q29 29 55 75.5
t43 110.5l109 406h52l-112 -417q-18 -67 -46 -118t-65 -88q-43 -43 -96.5 -65.5t-114.5 -22.5z" />
    <glyph glyph-name="aacute" unicode="&#xe1;" horiz-adv-x="571" 
d="M425 728l62 -30l-135 -103h-51zM199 33q36 0 72 12t67.5 34.5t54.5 53.5t34 70l12 45q-39 10 -87.5 17t-105.5 7q-38 0 -69.5 -10t-54 -28t-35 -42.5t-12.5 -54.5q0 -48 33.5 -76t90.5 -28zM190 -12q-32 0 -62 9t-53.5 27t-37.5 44.5t-14 62.5q0 42 17 76.5t47.5 58.5
t73 37t92.5 13q55 0 106.5 -9t89.5 -20l4 14q3 11 5 25.5t2 25.5q0 58 -39.5 89t-114.5 31q-42 0 -76.5 -7t-71.5 -20l-9 44q38 14 75.5 21.5t85.5 7.5q94 0 146 -42.5t52 -116.5q0 -14 -2.5 -32t-7.5 -35l-78 -292h-48l23 88q-37 -44 -87.5 -72t-117.5 -28z" />
    <glyph glyph-name="agrave" unicode="&#xe0;" horiz-adv-x="571" 
d="M284 698l62 30l52 -133h-35zM199 33q36 0 72 12t67.5 34.5t54.5 53.5t34 70l12 45q-39 10 -87.5 17t-105.5 7q-38 0 -69.5 -10t-54 -28t-35 -42.5t-12.5 -54.5q0 -48 33.5 -76t90.5 -28zM190 -12q-32 0 -62 9t-53.5 27t-37.5 44.5t-14 62.5q0 42 17 76.5t47.5 58.5t73 37
t92.5 13q55 0 106.5 -9t89.5 -20l4 14q3 11 5 25.5t2 25.5q0 58 -39.5 89t-114.5 31q-42 0 -76.5 -7t-71.5 -20l-9 44q38 14 75.5 21.5t85.5 7.5q94 0 146 -42.5t52 -116.5q0 -14 -2.5 -32t-7.5 -35l-78 -292h-48l23 88q-37 -44 -87.5 -72t-117.5 -28z" />
    <glyph glyph-name="acircumflex" unicode="&#xe2;" horiz-adv-x="571" 
d="M379 717h40l67 -122h-44l-52 68l-96 -68h-48zM199 33q36 0 72 12t67.5 34.5t54.5 53.5t34 70l12 45q-39 10 -87.5 17t-105.5 7q-38 0 -69.5 -10t-54 -28t-35 -42.5t-12.5 -54.5q0 -48 33.5 -76t90.5 -28zM190 -12q-32 0 -62 9t-53.5 27t-37.5 44.5t-14 62.5q0 42 17 76.5
t47.5 58.5t73 37t92.5 13q55 0 106.5 -9t89.5 -20l4 14q3 11 5 25.5t2 25.5q0 58 -39.5 89t-114.5 31q-42 0 -76.5 -7t-71.5 -20l-9 44q38 14 75.5 21.5t85.5 7.5q94 0 146 -42.5t52 -116.5q0 -14 -2.5 -32t-7.5 -35l-78 -292h-48l23 88q-37 -44 -87.5 -72t-117.5 -28z" />
    <glyph glyph-name="adieresis" unicode="&#xe4;" horiz-adv-x="571" 
d="M270 675h69l-22 -80h-69zM433 675h69l-22 -80h-69zM199 33q36 0 72 12t67.5 34.5t54.5 53.5t34 70l12 45q-39 10 -87.5 17t-105.5 7q-38 0 -69.5 -10t-54 -28t-35 -42.5t-12.5 -54.5q0 -48 33.5 -76t90.5 -28zM190 -12q-32 0 -62 9t-53.5 27t-37.5 44.5t-14 62.5
q0 42 17 76.5t47.5 58.5t73 37t92.5 13q55 0 106.5 -9t89.5 -20l4 14q3 11 5 25.5t2 25.5q0 58 -39.5 89t-114.5 31q-42 0 -76.5 -7t-71.5 -20l-9 44q38 14 75.5 21.5t85.5 7.5q94 0 146 -42.5t52 -116.5q0 -14 -2.5 -32t-7.5 -35l-78 -292h-48l23 88q-37 -44 -87.5 -72
t-117.5 -28z" />
    <glyph glyph-name="atilde" unicode="&#xe3;" horiz-adv-x="571" 
d="M220 608q24 49 48 72.5t56 23.5q23 0 36.5 -9.5t30.5 -25.5t26 -23t22 -7q16 0 29 15t30 45l38 -15q-24 -49 -48 -72.5t-56 -23.5q-23 0 -36.5 9.5t-30.5 25.5t-26 23t-22 7q-16 0 -29 -15t-30 -45zM199 33q36 0 72 12t67.5 34.5t54.5 53.5t34 70l12 45q-39 10 -87.5 17
t-105.5 7q-38 0 -69.5 -10t-54 -28t-35 -42.5t-12.5 -54.5q0 -48 33.5 -76t90.5 -28zM190 -12q-32 0 -62 9t-53.5 27t-37.5 44.5t-14 62.5q0 42 17 76.5t47.5 58.5t73 37t92.5 13q55 0 106.5 -9t89.5 -20l4 14q3 11 5 25.5t2 25.5q0 58 -39.5 89t-114.5 31q-42 0 -76.5 -7
t-71.5 -20l-9 44q38 14 75.5 21.5t85.5 7.5q94 0 146 -42.5t52 -116.5q0 -14 -2.5 -32t-7.5 -35l-78 -292h-48l23 88q-37 -44 -87.5 -72t-117.5 -28z" />
    <glyph glyph-name="aring" unicode="&#xe5;" horiz-adv-x="571" 
d="M384 627q29 0 49.5 20.5t20.5 49.5q0 22 -15.5 36t-44.5 14t-49.5 -20.5t-20.5 -49.5q0 -22 15.5 -36t44.5 -14zM384 595q-43 0 -69.5 23.5t-26.5 58.5q0 21 8.5 40t23 32.5t34 21.5t40.5 8q43 0 69.5 -23.5t26.5 -58.5q0 -21 -8.5 -40t-23 -32.5t-34 -21.5t-40.5 -8z
M199 33q36 0 72 12t67.5 34.5t54.5 53.5t34 70l12 45q-39 10 -87.5 17t-105.5 7q-38 0 -69.5 -10t-54 -28t-35 -42.5t-12.5 -54.5q0 -48 33.5 -76t90.5 -28zM190 -12q-32 0 -62 9t-53.5 27t-37.5 44.5t-14 62.5q0 42 17 76.5t47.5 58.5t73 37t92.5 13q55 0 106.5 -9
t89.5 -20l4 14q3 11 5 25.5t2 25.5q0 58 -39.5 89t-114.5 31q-42 0 -76.5 -7t-71.5 -20l-9 44q38 14 75.5 21.5t85.5 7.5q94 0 146 -42.5t52 -116.5q0 -14 -2.5 -32t-7.5 -35l-78 -292h-48l23 88q-37 -44 -87.5 -72t-117.5 -28z" />
    <glyph glyph-name="ccedilla" unicode="&#xe7;" horiz-adv-x="563" 
d="M226 -8q-35 7 -67 24.5t-56 45t-38.5 64.5t-14.5 82q0 63 24 119.5t65.5 100t96 69t114.5 25.5q39 0 71 -10t56.5 -27.5t42.5 -39.5t30 -46l-41 -23q-12 20 -26.5 38.5t-34 32t-44.5 21.5t-57 8q-49 0 -93 -21.5t-77.5 -58.5t-53.5 -85t-20 -100q0 -43 14.5 -76
t38.5 -55.5t55 -34t64 -11.5q50 0 90 20t75 53l33 -32q-39 -38 -88.5 -62.5t-112.5 -24.5h-3l-103 -136l-48 26z" />
    <glyph glyph-name="eacute" unicode="&#xe9;" horiz-adv-x="583" 
d="M434 728l62 -30l-135 -103h-51zM484 282q2 7 3 17.5t1 24.5q0 31 -8.5 58.5t-26.5 48.5t-45 33.5t-64 12.5q-43 0 -80 -15.5t-67 -42.5t-51 -62.5t-32 -74.5h370zM105 238q-1 -8 -1.5 -17t-0.5 -17q0 -39 12.5 -70t34.5 -53.5t53 -34.5t69 -12q58 0 97.5 19t76.5 49
l29 -35q-40 -33 -87 -56t-116 -23q-49 0 -89.5 15.5t-70 44t-46 68t-16.5 86.5q0 60 22.5 117.5t62.5 102.5t94 72.5t116 27.5q48 0 84 -15.5t60.5 -42.5t36.5 -62.5t12 -74.5q0 -49 -14 -89h-419z" />
    <glyph glyph-name="egrave" unicode="&#xe8;" horiz-adv-x="583" 
d="M288 698l62 30l52 -133h-35zM484 282q2 7 3 17.5t1 24.5q0 31 -8.5 58.5t-26.5 48.5t-45 33.5t-64 12.5q-43 0 -80 -15.5t-67 -42.5t-51 -62.5t-32 -74.5h370zM105 238q-1 -8 -1.5 -17t-0.5 -17q0 -39 12.5 -70t34.5 -53.5t53 -34.5t69 -12q58 0 97.5 19t76.5 49l29 -35
q-40 -33 -87 -56t-116 -23q-49 0 -89.5 15.5t-70 44t-46 68t-16.5 86.5q0 60 22.5 117.5t62.5 102.5t94 72.5t116 27.5q48 0 84 -15.5t60.5 -42.5t36.5 -62.5t12 -74.5q0 -49 -14 -89h-419z" />
    <glyph glyph-name="ecircumflex" unicode="&#xea;" horiz-adv-x="583" 
d="M377 717h40l67 -122h-44l-52 68l-96 -68h-48zM484 282q2 7 3 17.5t1 24.5q0 31 -8.5 58.5t-26.5 48.5t-45 33.5t-64 12.5q-43 0 -80 -15.5t-67 -42.5t-51 -62.5t-32 -74.5h370zM105 238q-1 -8 -1.5 -17t-0.5 -17q0 -39 12.5 -70t34.5 -53.5t53 -34.5t69 -12q58 0 97.5 19
t76.5 49l29 -35q-40 -33 -87 -56t-116 -23q-49 0 -89.5 15.5t-70 44t-46 68t-16.5 86.5q0 60 22.5 117.5t62.5 102.5t94 72.5t116 27.5q48 0 84 -15.5t60.5 -42.5t36.5 -62.5t12 -74.5q0 -49 -14 -89h-419z" />
    <glyph glyph-name="edieresis" unicode="&#xeb;" horiz-adv-x="583" 
d="M274 675h69l-22 -80h-69zM437 675h69l-22 -80h-69zM484 282q2 7 3 17.5t1 24.5q0 31 -8.5 58.5t-26.5 48.5t-45 33.5t-64 12.5q-43 0 -80 -15.5t-67 -42.5t-51 -62.5t-32 -74.5h370zM105 238q-1 -8 -1.5 -17t-0.5 -17q0 -39 12.5 -70t34.5 -53.5t53 -34.5t69 -12
q58 0 97.5 19t76.5 49l29 -35q-40 -33 -87 -56t-116 -23q-49 0 -89.5 15.5t-70 44t-46 68t-16.5 86.5q0 60 22.5 117.5t62.5 102.5t94 72.5t116 27.5q48 0 84 -15.5t60.5 -42.5t36.5 -62.5t12 -74.5q0 -49 -14 -89h-419z" />
    <glyph glyph-name="iacute" unicode="&#xed;" horiz-adv-x="250" 
d="M305 728l62 -30l-135 -103h-51zM169 510h49l-137 -510h-49z" />
    <glyph glyph-name="igrave" unicode="&#xec;" horiz-adv-x="250" 
d="M101 698l62 30l52 -133h-35zM169 510h49l-137 -510h-49z" />
    <glyph glyph-name="icircumflex" unicode="&#xee;" horiz-adv-x="250" 
d="M220 717h40l67 -122h-44l-52 68l-96 -68h-48zM169 510h49l-137 -510h-49z" />
    <glyph glyph-name="idieresis" unicode="&#xef;" horiz-adv-x="250" 
d="M118 675h69l-22 -80h-69zM281 675h69l-22 -80h-69zM169 510h49l-137 -510h-49z" />
    <glyph glyph-name="ntilde" unicode="&#xf1;" horiz-adv-x="611" 
d="M240 608q24 49 48 72.5t56 23.5q23 0 36.5 -9.5t30.5 -25.5t26 -23t22 -7q16 0 29 15t30 45l38 -15q-24 -49 -48 -72.5t-56 -23.5q-23 0 -36.5 9.5t-30.5 25.5t-26 23t-22 7q-16 0 -29 -15t-30 -45zM161 510h49l-25 -95q19 22 39.5 42t43.5 34t50.5 22.5t59.5 8.5
q76 0 121.5 -44t45.5 -118q0 -17 -3 -35.5t-8 -36.5l-76 -288h-49l78 292q4 14 6 31.5t2 31.5q0 57 -35 90t-96 33q-33 0 -66 -14t-62 -39.5t-51.5 -60t-33.5 -76.5l-77 -288h-49z" />
    <glyph glyph-name="oacute" unicode="&#xf3;" horiz-adv-x="633" 
d="M446 728l62 -30l-135 -103h-51zM283 34q46 0 90.5 21t78.5 56.5t55 82.5t21 100q0 87 -49.5 134.5t-129.5 47.5q-48 0 -92.5 -21.5t-78.5 -57.5t-54 -83t-20 -98q0 -87 49.5 -134.5t129.5 -47.5zM278 -12q-51 0 -92.5 17t-71.5 47t-46.5 71.5t-16.5 90.5q0 60 24.5 116
t66 98.5t96.5 68t116 25.5q51 0 92.5 -17t71.5 -47t46.5 -71.5t16.5 -90.5q0 -62 -25 -118t-67 -98t-97 -67t-114 -25z" />
    <glyph glyph-name="ograve" unicode="&#xf2;" horiz-adv-x="633" 
d="M299 698l62 30l52 -133h-35zM283 34q46 0 90.5 21t78.5 56.5t55 82.5t21 100q0 87 -49.5 134.5t-129.5 47.5q-48 0 -92.5 -21.5t-78.5 -57.5t-54 -83t-20 -98q0 -87 49.5 -134.5t129.5 -47.5zM278 -12q-51 0 -92.5 17t-71.5 47t-46.5 71.5t-16.5 90.5q0 60 24.5 116
t66 98.5t96.5 68t116 25.5q51 0 92.5 -17t71.5 -47t46.5 -71.5t16.5 -90.5q0 -62 -25 -118t-67 -98t-97 -67t-114 -25z" />
    <glyph glyph-name="ocircumflex" unicode="&#xf4;" horiz-adv-x="633" 
d="M411 717h40l67 -122h-44l-52 68l-96 -68h-48zM283 34q46 0 90.5 21t78.5 56.5t55 82.5t21 100q0 87 -49.5 134.5t-129.5 47.5q-48 0 -92.5 -21.5t-78.5 -57.5t-54 -83t-20 -98q0 -87 49.5 -134.5t129.5 -47.5zM278 -12q-51 0 -92.5 17t-71.5 47t-46.5 71.5t-16.5 90.5
q0 60 24.5 116t66 98.5t96.5 68t116 25.5q51 0 92.5 -17t71.5 -47t46.5 -71.5t16.5 -90.5q0 -62 -25 -118t-67 -98t-97 -67t-114 -25z" />
    <glyph glyph-name="odieresis" unicode="&#xf6;" horiz-adv-x="633" 
d="M291 675h69l-22 -80h-69zM454 675h69l-22 -80h-69zM283 34q46 0 90.5 21t78.5 56.5t55 82.5t21 100q0 87 -49.5 134.5t-129.5 47.5q-48 0 -92.5 -21.5t-78.5 -57.5t-54 -83t-20 -98q0 -87 49.5 -134.5t129.5 -47.5zM278 -12q-51 0 -92.5 17t-71.5 47t-46.5 71.5
t-16.5 90.5q0 60 24.5 116t66 98.5t96.5 68t116 25.5q51 0 92.5 -17t71.5 -47t46.5 -71.5t16.5 -90.5q0 -62 -25 -118t-67 -98t-97 -67t-114 -25z" />
    <glyph glyph-name="otilde" unicode="&#xf5;" horiz-adv-x="633" 
d="M244 608q24 49 48 72.5t56 23.5q23 0 36.5 -9.5t30.5 -25.5t26 -23t22 -7q16 0 29 15t30 45l38 -15q-24 -49 -48 -72.5t-56 -23.5q-23 0 -36.5 9.5t-30.5 25.5t-26 23t-22 7q-16 0 -29 -15t-30 -45zM283 34q46 0 90.5 21t78.5 56.5t55 82.5t21 100q0 87 -49.5 134.5
t-129.5 47.5q-48 0 -92.5 -21.5t-78.5 -57.5t-54 -83t-20 -98q0 -87 49.5 -134.5t129.5 -47.5zM278 -12q-51 0 -92.5 17t-71.5 47t-46.5 71.5t-16.5 90.5q0 60 24.5 116t66 98.5t96.5 68t116 25.5q51 0 92.5 -17t71.5 -47t46.5 -71.5t16.5 -90.5q0 -62 -25 -118t-67 -98
t-97 -67t-114 -25z" />
    <glyph glyph-name="uacute" unicode="&#xfa;" horiz-adv-x="609" 
d="M454 728l62 -30l-135 -103h-51zM231 -12q-76 0 -121.5 44t-45.5 118q0 17 3 35.5t8 36.5l76 288h49l-78 -292q-4 -14 -6 -31.5t-2 -31.5q0 -57 35 -90t96 -33q33 0 66 14t62 39.5t51.5 60t33.5 76.5l77 288h49l-136 -510h-49l25 95q-19 -23 -39.5 -42.5t-43.5 -33.5
t-50.5 -22.5t-59.5 -8.5z" />
    <glyph glyph-name="ugrave" unicode="&#xf9;" horiz-adv-x="609" 
d="M291 698l62 30l52 -133h-35zM231 -12q-76 0 -121.5 44t-45.5 118q0 17 3 35.5t8 36.5l76 288h49l-78 -292q-4 -14 -6 -31.5t-2 -31.5q0 -57 35 -90t96 -33q33 0 66 14t62 39.5t51.5 60t33.5 76.5l77 288h49l-136 -510h-49l25 95q-19 -23 -39.5 -42.5t-43.5 -33.5
t-50.5 -22.5t-59.5 -8.5z" />
    <glyph glyph-name="ucircumflex" unicode="&#xfb;" horiz-adv-x="609" 
d="M396 717h40l67 -122h-44l-52 68l-96 -68h-48zM231 -12q-76 0 -121.5 44t-45.5 118q0 17 3 35.5t8 36.5l76 288h49l-78 -292q-4 -14 -6 -31.5t-2 -31.5q0 -57 35 -90t96 -33q33 0 66 14t62 39.5t51.5 60t33.5 76.5l77 288h49l-136 -510h-49l25 95q-19 -23 -39.5 -42.5
t-43.5 -33.5t-50.5 -22.5t-59.5 -8.5z" />
    <glyph glyph-name="udieresis" unicode="&#xfc;" horiz-adv-x="609" 
d="M290 675h69l-22 -80h-69zM453 675h69l-22 -80h-69zM231 -12q-76 0 -121.5 44t-45.5 118q0 17 3 35.5t8 36.5l76 288h49l-78 -292q-4 -14 -6 -31.5t-2 -31.5q0 -57 35 -90t96 -33q33 0 66 14t62 39.5t51.5 60t33.5 76.5l77 288h49l-136 -510h-49l25 95
q-19 -23 -39.5 -42.5t-43.5 -33.5t-50.5 -22.5t-59.5 -8.5z" />
    <glyph glyph-name="dagger" unicode="&#x2020;" horiz-adv-x="410" 
d="M241 524l-126 -7l12 45l122 -7l32 145h50l-46 -145l126 7l-12 -45l-124 7l-71 -286h-44z" />
    <glyph glyph-name="degree" unicode="&#xb0;" horiz-adv-x="366" 
d="M219 453q23 0 44 10t37 26.5t25.5 38.5t9.5 46q0 42 -24 65.5t-62 23.5q-23 0 -44 -10t-37 -26.5t-25.5 -38.5t-9.5 -46q0 -42 24 -65.5t62 -23.5zM214 411q-28 0 -51 9.5t-39.5 26.5t-26 40t-9.5 50q0 33 13.5 63.5t36 54t52.5 37t64 13.5q28 0 51 -9.5t39.5 -26.5
t26 -40t9.5 -50q0 -33 -13.5 -63.5t-36 -54t-52.5 -37t-64 -13.5z" />
    <glyph glyph-name="cent" unicode="&#xa2;" horiz-adv-x="558" 
d="M391 575h-14q-52 0 -97.5 -21.5t-79 -58.5t-53 -86.5t-19.5 -104.5q0 -54 25 -95t70 -61zM204 105q-59 25 -94 77.5t-35 120.5q0 64 24 122t65.5 101.5t97 69t118.5 25.5h13.5t13.5 -1l34 86h50l-38 -94q53 -14 85.5 -45t49.5 -68l-41 -23q-18 32 -44 57t-70 36
l-170 -433q16 -3 36 -3q55 0 98 19.5t81 53.5l33 -32q-42 -39 -93.5 -63t-121.5 -24q-22 0 -47 5l-39 -98h-50z" />
    <glyph glyph-name="sterling" unicode="&#xa3;" horiz-adv-x="624" 
d="M5 25l91 20l70 260h-86l13 48h86l35 131q13 48 33.5 88.5t46.5 66.5q33 33 72.5 50.5t90.5 17.5q69 0 114.5 -31t71.5 -79l-43 -26q-26 42 -59 65.5t-87 23.5q-71 0 -121 -50q-46 -46 -70 -135l-33 -122h298l-13 -48h-298l-69 -258h374l-13 -47h-511z" />
    <glyph glyph-name="section" unicode="&#xa7;" horiz-adv-x="632" 
d="M392 245q31 0 58 7t46.5 19.5t30.5 28.5t11 34q0 29 -30.5 52t-102.5 48q-31 11 -56.5 16t-60.5 5q-32 0 -58.5 -7t-46 -19.5t-30.5 -28.5t-11 -34q0 -29 30.5 -52t102.5 -48q30 -11 56 -16t61 -5zM288 -10q-35 0 -67.5 7t-61 18t-52.5 26t-40 31l33 37q30 -29 81 -51.5
t114 -22.5q51 0 86.5 21.5t35.5 56.5q0 32 -33.5 54.5t-105.5 48.5q-94 33 -141 65t-47 81q0 29 15 53t42 40.5t63 25.5t78 9q-31 14 -54 38t-23 58q0 29 14.5 52t39 39t57.5 24.5t70 8.5q34 0 67 -7t61.5 -18t52 -26t40.5 -31l-33 -37q-30 29 -81 51.5t-114 22.5
q-51 0 -86.5 -21.5t-35.5 -56.5q0 -32 33.5 -54.5t105.5 -48.5q94 -33 141 -65t47 -81q0 -29 -15 -53t-42 -40.5t-63 -25.5t-78 -9q31 -14 54 -38t23 -58q0 -29 -14.5 -52t-39 -39t-57.5 -24.5t-70 -8.5z" />
    <glyph glyph-name="bullet" unicode="&#x2022;" horiz-adv-x="470" 
d="M232 222q-46 0 -75.5 29t-29.5 80q0 30 11.5 57.5t31 48.5t45.5 33t55 12q46 0 75.5 -29t29.5 -80q0 -30 -11.5 -57.5t-31 -48.5t-45.5 -33t-55 -12z" />
    <glyph glyph-name="paragraph" unicode="&#xb6;" horiz-adv-x="486" 
d="M330 263q-46 3 -87.5 14t-72.5 33t-49.5 55.5t-18.5 80.5q0 60 22.5 107t64.5 79.5t102.5 50t136.5 17.5h73l-188 -700h-53z" />
    <glyph glyph-name="germandbls" unicode="&#xdf;" horiz-adv-x="620" 
d="M232 42q69 1 118.5 14.5t81 35.5t46.5 50.5t15 59.5q0 57 -47 90.5t-134 49.5l12 45q118 28 170 74.5t52 112.5q0 51 -36 84t-102 33q-74 0 -126 -54.5t-78 -151.5l-130 -485h-49l134 500q14 51 36 94.5t51 72.5q34 34 76 52t90 18q40 0 74.5 -12t59.5 -33.5t39 -51
t14 -64.5q0 -45 -17 -79t-46 -59.5t-67.5 -43t-81.5 -29.5q33 -9 62 -22.5t50.5 -34t34 -47t12.5 -60.5q0 -44 -22 -81t-64 -64.5t-102.5 -43t-137.5 -14.5z" />
    <glyph glyph-name="registered" unicode="&#xae;" horiz-adv-x="830" 
d="M458 364q42 0 69.5 18t27.5 53q0 32 -24.5 49.5t-67.5 17.5h-119v-138h114zM301 543h164q59 0 97 -28.5t38 -77.5q0 -45 -27.5 -71.5t-72.5 -34.5l122 -154h-56l-116 147h-106v-147h-43v366zM439 16q71 0 132 26.5t105.5 72t70 106.5t25.5 130t-25 129.5t-69.5 106
t-105 71.5t-131.5 26t-132 -26.5t-105.5 -72t-70 -106.5t-25.5 -130t25 -129.5t69.5 -106t105 -71.5t131.5 -26zM439 -12q-76 0 -142 28.5t-114.5 77.5t-76.5 115t-28 140t28 140t77 115.5t115.5 78.5t142.5 29t142 -28.5t114.5 -77.5t76.5 -115t28 -140t-28 -140
t-77 -115.5t-115.5 -78.5t-142.5 -29z" />
    <glyph glyph-name="copyright" unicode="&#xa9;" horiz-adv-x="830" 
d="M444 166q-39 0 -72 15t-57.5 40.5t-38.5 60t-14 73.5t14 73.5t38.5 60.5t58 41t72.5 15q49 0 81 -17.5t60 -43.5l-30 -31q-22 21 -49.5 36.5t-62.5 15.5q-30 0 -55.5 -12t-44 -32t-28.5 -47t-10 -58t11 -58t29.5 -47.5t44 -32.5t54.5 -12q37 0 63 13.5t52 38.5l28 -28
q-29 -29 -62 -46.5t-82 -17.5zM439 16q71 0 132 26.5t105.5 72t70 106.5t25.5 130t-25 129.5t-69.5 106t-105 71.5t-131.5 26t-132 -26.5t-105.5 -72t-70 -106.5t-25.5 -130t25 -129.5t69.5 -106t105 -71.5t131.5 -26zM439 -12q-76 0 -142 28.5t-114.5 77.5t-76.5 115
t-28 140t28 140t77 115.5t115.5 78.5t142.5 29t142 -28.5t114.5 -77.5t76.5 -115t28 -140t-28 -140t-77 -115.5t-115.5 -78.5t-142.5 -29z" />
    <glyph glyph-name="trademark" unicode="&#x2122;" horiz-adv-x="690" 
d="M232 666h-101l10 34h237l-10 -34h-101l-78 -274h-35zM448 700h32l72 -183l168 183h41l-88 -308h-35l71 246l-167 -178h-5l-71 178l-71 -246h-35z" />
    <glyph glyph-name="acute" unicode="&#xb4;" 
d="M375 728l62 -30l-135 -103h-51z" />
    <glyph glyph-name="dieresis" unicode="&#xa8;" 
d="M235 675h69l-22 -80h-69zM398 675h69l-22 -80h-69z" />
    <glyph glyph-name="AE" unicode="&#xc6;" horiz-adv-x="1068" 
d="M514 243l110 410h-27l-355 -410h272zM579 700h541l-13 -48h-431l-74 -275h386l-13 -48h-386l-75 -281h436l-13 -48h-488l53 196h-301l-170 -196h-63z" />
    <glyph glyph-name="Oslash" unicode="&#xd8;" horiz-adv-x="846" 
d="M398 34q74 0 137.5 32t110.5 84.5t74 120.5t27 140q0 76 -34 136l-509 -425q32 -42 81.5 -65t112.5 -23zM688 583q-33 38 -81 60t-108 22q-74 0 -137.5 -32t-110.5 -84.5t-74 -120.5t-27 -140t30 -129zM398 -13q-73 0 -132 27.5t-100 75.5l-114 -95h-69l157 131
q-21 35 -32.5 76t-11.5 86q0 82 31.5 158.5t86.5 135.5t128 94.5t157 35.5q71 0 128.5 -26t98.5 -71l107 90h69l-149 -125q23 -36 35.5 -78.5t12.5 -90.5q0 -82 -31.5 -158.5t-86.5 -135.5t-128 -94.5t-157 -35.5z" />
    <glyph glyph-name="plusminus" unicode="&#xb1;" horiz-adv-x="600" 
d="M260 -12q-91 0 -155 35.5t-98 90.5l45 27q30 -46 79.5 -76t131.5 -30q45 0 82 12t64 33t41.5 49t14.5 60q0 37 -17 63.5t-46.5 44t-68.5 25.5t-84 8h-30l12 46h40q124 0 194.5 42t70.5 116q0 30 -12.5 54t-34.5 40.5t-52 25.5t-65 9q-61 0 -106 -19t-84 -50l-32 35
q41 33 94.5 57t127.5 24q44 0 83.5 -11.5t69.5 -33.5t48 -54t18 -74q0 -79 -57.5 -125.5t-153.5 -62.5q28 -8 53.5 -21.5t44.5 -33t30.5 -45t11.5 -58.5q0 -43 -20 -80t-55.5 -64.5t-83 -43t-101.5 -15.5z" />
    <glyph glyph-name="yen" unicode="&#xa5;" horiz-adv-x="700" 
d="M284 125h-210l12 45h210l26 98h-210l12 45h190l-170 387h59l161 -376l364 376h68l-380 -387h184l-12 -45h-214l-26 -98h214l-12 -45h-214l-33 -125h-52z" />
    <glyph glyph-name="mu" unicode="&#xb5;" horiz-adv-x="846" 
d="M398 34q54 0 101.5 17t88.5 46l-117 130l38 33l114 -134q58 54 91 129t33 156q0 54 -18 100t-50.5 80.5t-78 54t-101.5 19.5q-74 0 -137.5 -32t-110.5 -84.5t-74 -120.5t-27 -140q0 -54 18 -100t50.5 -80.5t78 -54t101.5 -19.5zM620 61q-48 -35 -104 -54.5t-118 -19.5
q-66 0 -121.5 23.5t-95.5 64t-62.5 95.5t-22.5 118q0 82 31.5 158.5t86.5 135.5t128 94.5t157 35.5q66 0 121.5 -23.5t95.5 -64t62.5 -95.5t22.5 -118q0 -92 -39.5 -176.5t-106.5 -144.5l75 -82l-38 -32z" />
    <glyph glyph-name="mu" unicode="&#x3bc;" horiz-adv-x="846" 
d="M398 34q54 0 101.5 17t88.5 46l-117 130l38 33l114 -134q58 54 91 129t33 156q0 54 -18 100t-50.5 80.5t-78 54t-101.5 19.5q-74 0 -137.5 -32t-110.5 -84.5t-74 -120.5t-27 -140q0 -54 18 -100t50.5 -80.5t78 -54t101.5 -19.5zM620 61q-48 -35 -104 -54.5t-118 -19.5
q-66 0 -121.5 23.5t-95.5 64t-62.5 95.5t-22.5 118q0 82 31.5 158.5t86.5 135.5t128 94.5t157 35.5q66 0 121.5 -23.5t95.5 -64t62.5 -95.5t22.5 -118q0 -92 -39.5 -176.5t-106.5 -144.5l75 -82l-38 -32z" />
    <glyph glyph-name="pi" unicode="&#x3c0;" horiz-adv-x="830" 
d="M456 344q48 0 76 20.5t28 58.5q0 40 -27 58.5t-74 18.5h-94v-156h91zM321 541h141q65 0 104 -29.5t39 -86.5q0 -31 -12.5 -54t-33 -38t-47.5 -22.5t-57 -7.5h-90v-128h-44v366zM439 16q71 0 132 26.5t105.5 72t70 106.5t25.5 130t-25 129.5t-69.5 106t-105 71.5
t-131.5 26t-132 -26.5t-105.5 -72t-70 -106.5t-25.5 -130t25 -129.5t69.5 -106t105 -71.5t131.5 -26zM439 -12q-76 0 -142 28.5t-114.5 77.5t-76.5 115t-28 140t28 140t77 115.5t115.5 78.5t142.5 29t142 -28.5t114.5 -77.5t76.5 -115t28 -140t-28 -140t-77 -115.5
t-115.5 -78.5t-142.5 -29z" />
    <glyph glyph-name="ordfeminine" unicode="&#xaa;" horiz-adv-x="390" 
d="M201 442q19 0 38.5 7.5t36.5 20t29.5 29t17.5 35.5l4 14q-19 5 -41.5 8.5t-48.5 3.5q-39 0 -64 -19.5t-25 -51.5q0 -21 14.5 -34t38.5 -13zM68 333h244l-10 -40h-244zM191 410q-35 0 -60 20t-25 55q0 48 37 77t94 29q26 0 51.5 -5t45.5 -10l2 6q2 5 3 13t1 14
q0 58 -78 58q-23 0 -42 -4t-38 -11l-7 35q21 8 43.5 12.5t50.5 4.5q54 0 82.5 -23.5t28.5 -64.5q0 -9 -2 -19l-4 -20l-43 -161h-40l14 50q-22 -24 -50 -40t-64 -16z" />
    <glyph glyph-name="ordmasculine" unicode="&#xba;" horiz-adv-x="390" 
d="M248 444q25 0 47 10.5t38.5 28.5t26 41.5t9.5 49.5q0 43 -25 68.5t-65 25.5q-25 0 -47.5 -11t-39 -29t-26 -41.5t-9.5 -48.5q0 -43 25.5 -68.5t65.5 -25.5zM70 333h268l-10 -40h-268zM245 407q-59 0 -94.5 36.5t-35.5 92.5q0 33 13 64t36 54t53 37t65 14q29 0 53 -10
t41 -27t26.5 -40.5t9.5 -51.5q0 -33 -13 -64t-36 -54t-53.5 -37t-64.5 -14z" />
    <glyph glyph-name="Omega" unicode="&#x3a9;" horiz-adv-x="724" 
d="M180 465h-74l12 45h74l20 74q39 146 163 146q29 0 55 -6.5t47 -17.5l-12 -44q-26 12 -46.5 18t-45.5 6q-40 0 -70 -26.5t-45 -86.5l-17 -63h184l-12 -45h-184l-125 -465h-49zM542 465h-74l12 45h74l20 74q39 146 163 146q29 0 55 -6.5t47 -17.5l-12 -44q-26 12 -46.5 18
t-45.5 6q-40 0 -69.5 -26.5t-45.5 -86.5l-17 -63h184l-12 -45h-184l-125 -465h-49z" />
    <glyph glyph-name="Omega" unicode="&#x2126;" horiz-adv-x="724" 
d="M180 465h-74l12 45h74l20 74q39 146 163 146q29 0 55 -6.5t47 -17.5l-12 -44q-26 12 -46.5 18t-45.5 6q-40 0 -70 -26.5t-45 -86.5l-17 -63h184l-12 -45h-184l-125 -465h-49zM542 465h-74l12 45h74l20 74q39 146 163 146q29 0 55 -6.5t47 -17.5l-12 -44q-26 12 -46.5 18
t-45.5 6q-40 0 -69.5 -26.5t-45.5 -86.5l-17 -63h184l-12 -45h-184l-125 -465h-49z" />
    <glyph glyph-name="ae" unicode="&#xe6;" horiz-adv-x="965" 
d="M441 249q-35 10 -87.5 16.5t-103.5 6.5q-38 0 -70.5 -10t-55.5 -27t-36 -41t-13 -52q0 -50 33.5 -79.5t95.5 -29.5q65 0 124.5 33t113.5 92q-2 11 -3 23.5t-1 24.5q0 22 3 43zM868 282q2 7 3 17.5t1 24.5q0 31 -8.5 58.5t-26.5 48.5t-45 33.5t-64 12.5q-43 0 -80 -15.5
t-67 -42.5t-51 -62.5t-32 -74.5h370zM455 113q-52 -54 -117.5 -89.5t-137.5 -35.5q-37 0 -69.5 9.5t-56.5 28t-37.5 46.5t-13.5 64q0 42 17.5 75t49 56.5t74.5 36t93 12.5q53 0 104 -9t88 -20l4 14q3 11 5 25.5t2 25.5q0 58 -39.5 89t-114.5 31q-42 0 -76.5 -7t-71.5 -20
l-9 44q38 14 75.5 21.5t85.5 7.5q81 0 131 -32t63 -89q40 54 98 89.5t127 35.5q48 0 84 -15.5t60.5 -42.5t36.5 -62.5t12 -74.5q0 -49 -14 -89h-419q-1 -8 -1.5 -17t-0.5 -17q0 -39 12.5 -70t34.5 -53.5t53 -34.5t69 -12q58 0 97.5 19t76.5 49l29 -35q-40 -33 -88.5 -56
t-111.5 -23q-78 0 -129.5 34.5t-74.5 90.5z" />
    <glyph glyph-name="oslash" unicode="&#xf8;" horiz-adv-x="633" 
d="M283 34q46 0 90.5 21t78.5 56.5t55 82.5t21 100q0 27 -5 49.5t-14 42.5l-363 -298q48 -54 137 -54zM486 422q-49 54 -137 54q-48 0 -92.5 -21.5t-78.5 -57.5t-54 -83t-20 -98q0 -27 5 -49.5t14 -42.5zM278 -12q-54 0 -96.5 19t-72.5 51l-77 -63h-67l118 96
q-32 53 -32 123q0 60 24.5 116t66 98.5t96.5 68t116 25.5q54 0 96.5 -18.5t72.5 -50.5l79 64h67l-120 -98q32 -53 32 -123q0 -62 -25 -118t-67 -98t-97 -67t-114 -25z" />
    <glyph glyph-name="questiondown" unicode="&#xbf;" horiz-adv-x="534" 
d="M252 -9q-47 0 -84 13t-63 36.5t-40 55.5t-14 70q0 50 21.5 88.5t58 66.5t84.5 45.5t101 25.5l43 125h32l-30 -162l-7 -5q-55 -4 -101 -18t-79 -37.5t-51.5 -55.5t-18.5 -72q0 -32 12 -56t32.5 -40t48 -24.5t59.5 -8.5q61 0 111.5 27t84.5 61l32 -34q-20 -20 -44.5 -38.5
t-53.5 -32.5t-62.5 -22t-71.5 -8zM391 700h66l-23 -85h-66z" />
    <glyph glyph-name="exclamdown" unicode="&#xa1;" horiz-adv-x="251" 
d="M47 70l135 447h28l-105 -447l-19 -70h-58zM212 700h66l-23 -85h-66z" />
    <glyph glyph-name="radical" unicode="&#x221a;" horiz-adv-x="974" 
d="M180 465h-74l12 45h74l20 74q39 146 163 146q29 0 55 -6.5t47 -17.5l-12 -44q-26 12 -46.5 18t-45.5 6q-40 0 -70 -26.5t-45 -86.5l-17 -63h184l-12 -45h-184l-125 -465h-49zM542 465h-74l12 45h74l20 74q39 146 163 146q29 0 55 -6.5t47 -17.5l-12 -44q-26 12 -46.5 18
t-45.5 6q-40 0 -69.5 -26.5t-45.5 -86.5l-17 -63h184l-12 -45h-184l-125 -465h-49zM952 730h49l-196 -730h-49z" />
    <glyph glyph-name="florin" unicode="&#x192;" horiz-adv-x="526" 
d="M33 -10q-20 0 -33 2.5t-23 5.5l13 43q7 -2 18.5 -4.5t28.5 -2.5q35 0 61.5 25.5t51.5 81.5l107 243h-107l12 45h114l59 134q32 75 75 111t103 36q24 0 44.5 -4t38.5 -11l-15 -42q-15 5 -32.5 9t-37.5 4q-42 0 -73.5 -27.5t-57.5 -87.5l-54 -122h162l-12 -45h-169
l-112 -255q-17 -39 -35.5 -66t-38 -43t-41.5 -23t-47 -7z" />
    <glyph glyph-name="approxequal" unicode="&#x2248;" horiz-adv-x="974" 
d="M893 510h49l-137 -510h-49zM180 465h-74l12 45h74l20 74q39 146 163 146q29 0 55 -6.5t47 -17.5l-12 -44q-26 12 -46.5 18t-45.5 6q-40 0 -70 -26.5t-45 -86.5l-17 -63h184l-12 -45h-184l-125 -465h-49zM542 465h-74l12 45h74l20 74q39 146 163 146q29 0 55 -6.5
t47 -17.5l-12 -44q-26 12 -46.5 18t-45.5 6q-40 0 -69.5 -26.5t-45.5 -86.5l-17 -63h184l-12 -45h-184l-125 -465h-49zM941 710h61l-18 -67h-61z" />
    <glyph glyph-name="guillemotleft" unicode="&#xab;" horiz-adv-x="515" 
d="M45 251l2 8l216 209l36 -28l-192 -192l83 -184l-41 -22zM249 251l2 8l216 209l36 -28l-192 -192l83 -184l-41 -22z" />
    <glyph glyph-name="guillemotright" unicode="&#xbb;" horiz-adv-x="515" 
d="M11 69l192 192l-83 184l41 22l104 -209l-2 -8l-216 -209zM215 69l192 192l-83 184l41 22l104 -209l-2 -8l-216 -209z" />
    <glyph glyph-name="ellipsis" unicode="&#x2026;" horiz-adv-x="683" 
d="M37 85h66l-23 -85h-66zM263 85h66l-23 -85h-66zM489 85h66l-23 -85h-66z" />
    <glyph glyph-name="nonbreakingspace" unicode="&#xa0;" horiz-adv-x="300" 
 />
    <glyph glyph-name="Agrave" unicode="&#xc0;" horiz-adv-x="759" 
d="M438 868l62 30l52 -133h-35zM569 243l-75 405l-294 -405h369zM481 705h50l137 -705h-53l-36 196h-413l-142 -196h-58z" />
    <glyph glyph-name="Atilde" unicode="&#xc3;" horiz-adv-x="759" 
d="M378 778q24 49 48 72.5t56 23.5q23 0 36.5 -9.5t30.5 -25.5t26 -23t22 -7q16 0 29 15t30 45l38 -15q-24 -49 -48 -72.5t-56 -23.5q-23 0 -36.5 9.5t-30.5 25.5t-26 23t-22 7q-16 0 -29 -15t-30 -45zM569 243l-75 405l-294 -405h369zM481 705h50l137 -705h-53l-36 196
h-413l-142 -196h-58z" />
    <glyph glyph-name="Otilde" unicode="&#xd5;" horiz-adv-x="846" 
d="M383 778q24 49 48 72.5t56 23.5q23 0 36.5 -9.5t30.5 -25.5t26 -23t22 -7q16 0 29 15t30 45l38 -15q-24 -49 -48 -72.5t-56 -23.5q-23 0 -36.5 9.5t-30.5 25.5t-26 23t-22 7q-16 0 -29 -15t-30 -45zM398 34q74 0 137.5 32t110.5 84.5t74 120.5t27 140q0 54 -18 100
t-50.5 80.5t-78 54t-101.5 19.5q-74 0 -137.5 -32t-110.5 -84.5t-74 -120.5t-27 -140q0 -54 18 -100t50.5 -80.5t78 -54t101.5 -19.5zM398 -13q-66 0 -121.5 23.5t-95.5 64t-62.5 95.5t-22.5 118q0 82 31.5 158.5t86.5 135.5t128 94.5t157 35.5q66 0 121.5 -23.5t95.5 -64
t62.5 -95.5t22.5 -118q0 -82 -31.5 -158.5t-86.5 -135.5t-128 -94.5t-157 -35.5z" />
    <glyph glyph-name="OE" unicode="&#x152;" horiz-adv-x="1154" 
d="M549 48l162 604h-161q-95 0 -173.5 -31t-136.5 -89q-45 -45 -69.5 -104.5t-24.5 -129.5q0 -54 17 -97t48 -74q39 -39 98.5 -59t134.5 -20h105zM441 0q-82 0 -153 23t-119 71q-37 37 -57 86t-20 114q0 81 28 149.5t81 121.5q63 63 155 99t201 36h649l-13 -48h-430
l-74 -275h385l-13 -48h-385l-75 -281h435l-13 -48h-582z" />
    <glyph glyph-name="oe" unicode="&#x153;" horiz-adv-x="1046" 
d="M283 34q46 0 90.5 20.5t78.5 56t55 81.5t21 97q0 91 -49.5 139t-129.5 48q-48 0 -92.5 -21.5t-78.5 -57.5t-54 -83t-20 -98q0 -87 49.5 -134.5t129.5 -47.5zM949 282q2 7 3 17.5t1 24.5q0 31 -8.5 58.5t-26.5 48.5t-45 33.5t-64 12.5q-43 0 -80 -15.5t-67 -42.5
t-51 -62.5t-32 -74.5h370zM570 238q-1 -8 -1.5 -17t-0.5 -17q0 -39 12.5 -70t34.5 -53.5t53 -34.5t69 -12q58 0 97.5 19t76.5 49l29 -35q-40 -33 -88.5 -56t-111.5 -23q-82 0 -138.5 42.5t-72.5 112.5q-19 -31 -44.5 -59t-57 -49.5t-70 -34t-82.5 -12.5q-49 0 -90 17t-71 47
t-46.5 71.5t-16.5 90.5q0 60 24.5 116t66 98.5t96.5 68t116 25.5q44 0 79.5 -13t62 -35t43.5 -52t25 -63q17 32 40.5 61.5t54 52t68.5 36t83 13.5q48 0 84 -15.5t60.5 -42.5t36.5 -62.5t12 -74.5q0 -49 -14 -89h-419z" />
    <glyph glyph-name="endash" unicode="&#x2013;" horiz-adv-x="528" 
d="M88 323h388l-14 -52h-388z" />
    <glyph glyph-name="emdash" unicode="&#x2014;" horiz-adv-x="898" 
d="M88 323h758l-14 -52h-758z" />
    <glyph glyph-name="quotedblleft" unicode="&#x201c;" horiz-adv-x="411" 
d="M166 587q7 26 16.5 45t23 32.5t32 23t43.5 16.5l7 -24q-37 -13 -56 -33t-24 -49h27l-23 -85h-66zM346 587q7 26 16.5 45t23 32.5t32 23t43.5 16.5l7 -24q-37 -13 -56 -33t-24 -49h27l-23 -85h-66z" />
    <glyph glyph-name="quotedblright" unicode="&#x201d;" horiz-adv-x="411" 
d="M120 533q37 13 56 33t24 49h-27l23 85h66l-20 -74q-8 -26 -17.5 -45t-23 -32.5t-31.5 -23t-43 -16.5zM300 533q37 13 56 33t24 49h-27l23 85h66l-20 -74q-8 -26 -17.5 -45t-23 -32.5t-31.5 -23t-43 -16.5z" />
    <glyph glyph-name="quoteleft" unicode="&#x2018;" horiz-adv-x="231" 
d="M167 587q7 26 16.5 45t23 32.5t32 23t43.5 16.5l7 -24q-37 -13 -56 -33t-24 -49h27l-23 -85h-66z" />
    <glyph glyph-name="quoteright" unicode="&#x2019;" horiz-adv-x="231" 
d="M131 533q37 13 56 33t24 49h-27l23 85h66l-20 -74q-8 -26 -17.5 -45t-23 -32.5t-31.5 -23t-43 -16.5z" />
    <glyph glyph-name="ydieresis" unicode="&#xff;" horiz-adv-x="568" 
d="M264 675h69l-22 -80h-69zM427 675h69l-22 -80h-69zM20 -163q-58 0 -108 35l27 40q16 -13 41.5 -21t45.5 -8q39 0 77.5 26t85.5 94l-104 507h52l89 -456l307 456h59l-363 -528q-56 -80 -105 -112.5t-104 -32.5z" />
    <glyph glyph-name="Ydieresis" unicode="&#x178;" horiz-adv-x="668" 
d="M365 845h69l-22 -80h-69zM528 845h69l-22 -80h-69zM310 284l-183 416h57l161 -376l364 376h70l-421 -429l-72 -271h-52z" />
    <glyph glyph-name="fraction" unicode="&#x2044;" horiz-adv-x="550" 
d="M614 758h59l-697 -856h-59z" />
    <glyph glyph-name="fraction" unicode="&#x2215;" horiz-adv-x="550" 
d="M614 758h59l-697 -856h-59z" />
    <glyph glyph-name="currency" unicode="&#xa4;" horiz-adv-x="684" 
d="M372 -12q-51 0 -94 17.5t-75.5 51t-51.5 81t-22 107.5h-92l13 48h80q3 65 21 123h-69l13 48h73q21 53 53.5 98.5t74 78.5t91 52t106.5 19q44 0 79.5 -12.5t62.5 -34t46.5 -50.5t30.5 -62l-45 -18q-12 30 -28.5 54t-38.5 41t-50.5 26t-65.5 9q-42 0 -81 -15t-72.5 -41.5
t-61 -63.5t-46.5 -81h301l-13 -48h-306q-9 -29 -14.5 -60t-7.5 -63h296l-13 -48h-283q2 -46 16 -84.5t38 -66.5t58 -43.5t78 -15.5q65 0 112 26t89 72l35 -30q-23 -25 -47.5 -46t-53.5 -36.5t-62.5 -24t-73.5 -8.5z" />
    <glyph glyph-name="guilsinglleft" unicode="&#x2039;" horiz-adv-x="311" 
d="M45 251l2 8l216 209l36 -28l-192 -192l83 -184l-41 -22z" />
    <glyph glyph-name="guilsinglright" unicode="&#x203a;" horiz-adv-x="311" 
d="M11 69l192 192l-83 184l41 22l104 -209l-2 -8l-216 -209z" />
    <glyph glyph-name="daggerdbl" unicode="&#x2021;" horiz-adv-x="430" 
d="M149 145l-126 -7l12 45l123 -7l42 174l51 174l-126 -7l12 45l122 -7l32 145h50l-46 -145l126 7l-12 -45l-124 7l-41 -174l-52 -174l127 7l-12 -45l-122 7l-32 -145h-50z" />
    <glyph glyph-name="periodcentered" unicode="&#xb7;" horiz-adv-x="231" 
d="M105 340h66l-23 -85h-66z" />
    <glyph glyph-name="periodcentered" unicode="&#x2219;" horiz-adv-x="231" 
d="M105 340h66l-23 -85h-66z" />
    <glyph glyph-name="quotesinglbase" unicode="&#x201a;" horiz-adv-x="231" 
d="M-39 -82q37 13 56 33t24 49h-27l23 85h66l-20 -74q-8 -26 -17.5 -45t-23 -32.5t-31.5 -23t-43 -16.5z" />
    <glyph glyph-name="quotedblbase" unicode="&#x201e;" horiz-adv-x="412" 
d="M-39 -82q37 13 56 33t24 49h-27l23 85h66l-20 -74q-8 -26 -17.5 -45t-23 -32.5t-31.5 -23t-43 -16.5zM142 -82q37 13 56 33t24 49h-27l23 85h66l-20 -74q-8 -26 -17.5 -45t-23 -32.5t-31.5 -23t-43 -16.5z" />
    <glyph glyph-name="perthousand" unicode="&#x2030;" horiz-adv-x="1203" 
d="M592 36q29 0 54 15t44 39.5t29.5 55t10.5 61.5q0 48 -23.5 76.5t-68.5 28.5q-29 0 -54 -15t-44 -39.5t-29.5 -55t-10.5 -61.5q0 -48 23.5 -76.5t68.5 -28.5zM974 36q29 0 54 15t44 39.5t29.5 55t10.5 61.5q0 48 -23.5 76.5t-68.5 28.5q-29 0 -54 -15t-44 -39.5t-29.5 -55
t-10.5 -61.5q0 -48 23.5 -76.5t68.5 -28.5zM234 389q29 0 54 15t44 39.5t29.5 55t10.5 61.5q0 48 -23.5 76.5t-68.5 28.5q-29 0 -54 -15t-44 -39.5t-29.5 -55t-10.5 -61.5q0 -48 23.5 -76.5t68.5 -28.5zM588 -7q-30 0 -55.5 11t-43.5 30.5t-28 45.5t-10 56q0 42 15 81.5
t40.5 70t60.5 49t75 18.5q30 0 55.5 -11t43.5 -30.5t28 -45.5t10 -56q0 -42 -15 -81.5t-40.5 -70t-60.5 -49t-75 -18.5zM970 -7q-30 0 -55.5 11t-43.5 30.5t-28 45.5t-10 56q0 42 15 81.5t40.5 70t60.5 49t75 18.5q30 0 55.5 -11t43.5 -30.5t28 -45.5t10 -56
q0 -42 -15 -81.5t-40.5 -70t-60.5 -49t-75 -18.5zM747 700h60l-682 -700h-60zM230 346q-30 0 -55.5 11t-43.5 30.5t-28 45.5t-10 56q0 42 15 81.5t40.5 70t60.5 49t75 18.5q30 0 55.5 -11t43.5 -30.5t28 -45.5t10 -56q0 -42 -15 -81.5t-40.5 -70t-60.5 -49t-75 -18.5z" />
    <glyph glyph-name="Acircumflex" unicode="&#xc2;" horiz-adv-x="759" 
d="M534 887h40l67 -122h-44l-52 68l-96 -68h-48zM569 243l-75 405l-294 -405h369zM481 705h50l137 -705h-53l-36 196h-413l-142 -196h-58z" />
    <glyph glyph-name="Ecircumflex" unicode="&#xca;" horiz-adv-x="649" 
d="M488 887h40l67 -122h-44l-52 68l-96 -68h-48zM224 700h493l-13 -48h-441l-74 -275h396l-13 -48h-396l-75 -281h446l-13 -48h-498z" />
    <glyph glyph-name="Aacute" unicode="&#xc1;" horiz-adv-x="759" 
d="M613 898l62 -30l-135 -103h-51zM569 243l-75 405l-294 -405h369zM481 705h50l137 -705h-53l-36 196h-413l-142 -196h-58z" />
    <glyph glyph-name="Edieresis" unicode="&#xcb;" horiz-adv-x="649" 
d="M387 845h69l-22 -80h-69zM550 845h69l-22 -80h-69zM224 700h493l-13 -48h-441l-74 -275h396l-13 -48h-396l-75 -281h446l-13 -48h-498z" />
    <glyph glyph-name="Egrave" unicode="&#xc8;" horiz-adv-x="649" 
d="M401 868l62 30l52 -133h-35zM224 700h493l-13 -48h-441l-74 -275h396l-13 -48h-396l-75 -281h446l-13 -48h-498z" />
    <glyph glyph-name="Iacute" unicode="&#xcd;" horiz-adv-x="274" 
d="M356 898l62 -30l-135 -103h-51zM231 700h52l-188 -700h-52z" />
    <glyph glyph-name="Icircumflex" unicode="&#xce;" horiz-adv-x="274" 
d="M281 887h40l67 -122h-44l-52 68l-96 -68h-48zM231 700h52l-188 -700h-52z" />
    <glyph glyph-name="Idieresis" unicode="&#xcf;" horiz-adv-x="274" 
d="M181 845h69l-22 -80h-69zM344 845h69l-22 -80h-69zM231 700h52l-188 -700h-52z" />
    <glyph glyph-name="Igrave" unicode="&#xcc;" horiz-adv-x="274" 
d="M185 868l62 30l52 -133h-35zM231 700h52l-188 -700h-52z" />
    <glyph glyph-name="Oacute" unicode="&#xd3;" horiz-adv-x="846" 
d="M593 898l62 -30l-135 -103h-51zM398 34q74 0 137.5 32t110.5 84.5t74 120.5t27 140q0 54 -18 100t-50.5 80.5t-78 54t-101.5 19.5q-74 0 -137.5 -32t-110.5 -84.5t-74 -120.5t-27 -140q0 -54 18 -100t50.5 -80.5t78 -54t101.5 -19.5zM398 -13q-66 0 -121.5 23.5t-95.5 64
t-62.5 95.5t-22.5 118q0 82 31.5 158.5t86.5 135.5t128 94.5t157 35.5q66 0 121.5 -23.5t95.5 -64t62.5 -95.5t22.5 -118q0 -82 -31.5 -158.5t-86.5 -135.5t-128 -94.5t-157 -35.5z" />
    <glyph glyph-name="Ocircumflex" unicode="&#xd4;" horiz-adv-x="846" 
d="M553 887h40l67 -122h-44l-52 68l-96 -68h-48zM398 34q74 0 137.5 32t110.5 84.5t74 120.5t27 140q0 54 -18 100t-50.5 80.5t-78 54t-101.5 19.5q-74 0 -137.5 -32t-110.5 -84.5t-74 -120.5t-27 -140q0 -54 18 -100t50.5 -80.5t78 -54t101.5 -19.5zM398 -13
q-66 0 -121.5 23.5t-95.5 64t-62.5 95.5t-22.5 118q0 82 31.5 158.5t86.5 135.5t128 94.5t157 35.5q66 0 121.5 -23.5t95.5 -64t62.5 -95.5t22.5 -118q0 -82 -31.5 -158.5t-86.5 -135.5t-128 -94.5t-157 -35.5z" />
    <glyph glyph-name="Ograve" unicode="&#xd2;" horiz-adv-x="846" 
d="M467 868l62 30l52 -133h-35zM398 34q74 0 137.5 32t110.5 84.5t74 120.5t27 140q0 54 -18 100t-50.5 80.5t-78 54t-101.5 19.5q-74 0 -137.5 -32t-110.5 -84.5t-74 -120.5t-27 -140q0 -54 18 -100t50.5 -80.5t78 -54t101.5 -19.5zM398 -13q-66 0 -121.5 23.5t-95.5 64
t-62.5 95.5t-22.5 118q0 82 31.5 158.5t86.5 135.5t128 94.5t157 35.5q66 0 121.5 -23.5t95.5 -64t62.5 -95.5t22.5 -118q0 -82 -31.5 -158.5t-86.5 -135.5t-128 -94.5t-157 -35.5z" />
    <glyph glyph-name="Uacute" unicode="&#xda;" horiz-adv-x="756" 
d="M563 898l62 -30l-135 -103h-51zM348 -11q-63 0 -110.5 17t-79 46.5t-47 69.5t-15.5 87q0 29 3.5 55.5t10.5 52.5l102 383h52l-108 -407q-4 -15 -6.5 -36t-2.5 -44q0 -38 12.5 -70t37.5 -56t63.5 -37.5t91.5 -13.5q47 0 91 18t80 54q29 29 55 75.5t43 110.5l109 406h52
l-112 -417q-18 -67 -46 -118t-65 -88q-43 -43 -96.5 -65.5t-114.5 -22.5z" />
    <glyph glyph-name="Ucircumflex" unicode="&#xdb;" horiz-adv-x="756" 
d="M520 887h40l67 -122h-44l-52 68l-96 -68h-48zM348 -11q-63 0 -110.5 17t-79 46.5t-47 69.5t-15.5 87q0 29 3.5 55.5t10.5 52.5l102 383h52l-108 -407q-4 -15 -6.5 -36t-2.5 -44q0 -38 12.5 -70t37.5 -56t63.5 -37.5t91.5 -13.5q47 0 91 18t80 54q29 29 55 75.5t43 110.5
l109 406h52l-112 -417q-18 -67 -46 -118t-65 -88q-43 -43 -96.5 -65.5t-114.5 -22.5z" />
    <glyph glyph-name="Ugrave" unicode="&#xd9;" horiz-adv-x="756" 
d="M427 868l62 30l52 -133h-35zM348 -11q-63 0 -110.5 17t-79 46.5t-47 69.5t-15.5 87q0 29 3.5 55.5t10.5 52.5l102 383h52l-108 -407q-4 -15 -6.5 -36t-2.5 -44q0 -38 12.5 -70t37.5 -56t63.5 -37.5t91.5 -13.5q47 0 91 18t80 54q29 29 55 75.5t43 110.5l109 406h52
l-112 -417q-18 -67 -46 -118t-65 -88q-43 -43 -96.5 -65.5t-114.5 -22.5z" />
    <glyph glyph-name="dotlessi" unicode="&#x131;" horiz-adv-x="250" 
d="M169 510h49l-137 -510h-49z" />
    <glyph glyph-name="circumflex" unicode="&#x2c6;" 
d="M355 717h40l67 -122h-44l-52 68l-96 -68h-48z" />
    <glyph glyph-name="tilde" unicode="&#x2dc;" 
d="M195 608q24 49 48 72.5t56 23.5q23 0 36.5 -9.5t30.5 -25.5t26 -23t22 -7q16 0 29 15t30 45l38 -15q-24 -49 -48 -72.5t-56 -23.5q-23 0 -36.5 9.5t-30.5 25.5t-26 23t-22 7q-16 0 -29 -15t-30 -45z" />
    <glyph glyph-name="macron" unicode="&#xaf;" 
d="M204 653h300l-14 -53h-300z" />
    <glyph glyph-name="macron" unicode="&#x2c9;" 
d="M204 653h300l-14 -53h-300z" />
    <glyph glyph-name="breve" unicode="&#x2d8;" 
d="M339 593q-48 0 -76 23.5t-28 67.5q0 16 4 33h40q0 -34 14 -53.5t57 -19.5q39 0 65 19.5t44 53.5h46q-20 -59 -65 -91.5t-101 -32.5z" />
    <glyph glyph-name="dotaccent" unicode="&#x2d9;" 
d="M330 678h66l-23 -85h-66z" />
    <glyph glyph-name="ring" unicode="&#x2da;" 
d="M359 627q29 0 49.5 20.5t20.5 49.5q0 22 -15.5 36t-44.5 14t-49.5 -20.5t-20.5 -49.5q0 -22 15.5 -36t44.5 -14zM359 595q-43 0 -69.5 23.5t-26.5 58.5q0 21 8.5 40t23 32.5t34 21.5t40.5 8q43 0 69.5 -23.5t26.5 -58.5q0 -21 -8.5 -40t-23 -32.5t-34 -21.5t-40.5 -8z
" />
    <glyph glyph-name="cedilla" unicode="&#xb8;" 
d="M70 -122l125 132h43l-120 -158z" />
    <glyph glyph-name="hungarumlaut" unicode="&#x2dd;" 
d="M317 728l47 -29l-129 -104h-43zM469 728l47 -29l-129 -104h-43z" />
    <glyph glyph-name="ogonek" unicode="&#x2db;" 
d="M226 -164q-75 -2 -109.5 21t-34.5 61q0 20 11 46t25 46h43q-9 -17 -17 -42.5t-8 -39.5q0 -56 98 -61z" />
    <glyph glyph-name="caron" unicode="&#x2c7;" 
d="M254 717h44l52 -68l96 68h48l-133 -122h-40z" />
    <glyph glyph-name="Lslash" unicode="&#x141;" horiz-adv-x="650" 
d="M171 316l-80 -23l12 48l81 23l90 336h52l-86 -320l243 69l-13 -48l-243 -69l-76 -284h411l-13 -48h-463z" />
    <glyph glyph-name="lslash" unicode="&#x142;" horiz-adv-x="309" 
d="M152 335l-81 -23l13 50l81 23l93 345h49l-89 -330l84 24l-14 -50l-83 -24l-94 -350h-49z" />
    <glyph glyph-name="Scaron" unicode="&#x160;" horiz-adv-x="638" 
d="M353 887h44l52 -68l96 68h48l-133 -122h-40zM299 -10q-96 0 -165.5 36t-113.5 98l40 29q45 -58 102.5 -87t141.5 -29q43 0 80 11.5t64 32t42.5 48.5t15.5 61q0 23 -8 41.5t-26 35t-47.5 32t-71.5 32.5q-54 21 -92 40.5t-62 41t-35 47t-11 57.5q0 40 18 75t51 61t79 41.5
t103 15.5q79 0 142 -30t101 -77l-40 -32q-38 45 -90 68.5t-118 23.5q-45 0 -81 -12t-60.5 -31.5t-38 -45t-13.5 -53.5q0 -24 10 -43.5t30.5 -36t52 -32t74.5 -31.5q49 -18 84 -37t57.5 -41t33.5 -48t11 -58q0 -43 -19.5 -80t-54 -64.5t-82.5 -43.5t-104 -16z" />
    <glyph glyph-name="scaron" unicode="&#x161;" horiz-adv-x="495" 
d="M241 717h44l52 -68l96 68h48l-133 -122h-40zM217 -11q-60 0 -116 22t-100 66l35 35q42 -41 89 -59.5t98 -18.5q24 0 48 7t42.5 20.5t30 32t11.5 41.5q0 15 -5 28t-17.5 25t-34 24t-54.5 24q-73 27 -108 57t-35 80q0 30 13.5 57t38 47.5t59.5 32t78 11.5q54 0 103 -20.5
t81 -47.5l-32 -37q-29 24 -70.5 42t-86.5 18q-32 0 -57 -8t-41.5 -21.5t-25 -30.5t-8.5 -35q0 -15 4.5 -27t17.5 -23.5t35 -23.5t58 -26q38 -15 64.5 -30t43 -31.5t24 -35t7.5 -41.5q0 -33 -15 -61.5t-41 -49t-60.5 -32t-73.5 -11.5z" />
    <glyph glyph-name="Yacute" unicode="&#xdd;" horiz-adv-x="668" 
d="M519 898l62 -30l-135 -103h-51zM310 284l-183 416h57l161 -376l364 376h70l-421 -429l-72 -271h-52z" />
    <glyph glyph-name="yacute" unicode="&#xfd;" horiz-adv-x="568" 
d="M419 728l62 -30l-135 -103h-51zM20 -163q-58 0 -108 35l27 40q16 -13 41.5 -21t45.5 -8q39 0 77.5 26t85.5 94l-104 507h52l89 -456l307 456h59l-363 -528q-56 -80 -105 -112.5t-104 -32.5z" />
    <glyph glyph-name="Thorn" unicode="&#xde;" horiz-adv-x="668" 
d="M305 182q142 0 217 52t75 149q0 57 -36 93q-49 49 -154 49h-178l-92 -343h168zM224 700h51l-33 -127h166q63 0 112 -15.5t81 -47.5q48 -48 48 -125q0 -60 -24.5 -106.5t-69.5 -78.5t-109 -48.5t-143 -16.5h-178l-37 -135h-52z" />
    <glyph glyph-name="thorn" unicode="&#xfe;" horiz-adv-x="654" 
d="M310 33q52 0 95.5 22t75 59t49 85.5t17.5 101.5q0 39 -11.5 71.5t-32.5 55.5t-50 35.5t-64 12.5q-48 0 -93.5 -22.5t-81.5 -59t-58 -84.5t-22 -99q0 -37 12.5 -69.5t36 -56.5t56 -38t71.5 -14zM221 730h49l-87 -320q38 46 91 79t121 33q44 0 81.5 -16t65 -44.5t43 -68
t15.5 -86.5q0 -68 -23.5 -126.5t-63.5 -101.5t-92 -67.5t-109 -24.5q-43 0 -76.5 12t-58 32t-41.5 46t-27 53l-78 -290h-49z" />
    <glyph glyph-name="Zcaron" unicode="&#x17d;" horiz-adv-x="662" 
d="M359 887h44l52 -68l96 68h48l-133 -122h-40zM-11 29l636 624h-452l13 47h533l-8 -29l-636 -624h472l-13 -47h-553z" />
    <glyph glyph-name="zcaron" unicode="&#x17e;" horiz-adv-x="546" 
d="M263 717h44l52 -68l96 68h48l-133 -122h-40zM-9 28l475 438h-344l12 44h424l-8 -28l-475 -438h361l-12 -44h-441z" />
    <glyph glyph-name="eth" unicode="&#xf0;" horiz-adv-x="616" 
d="M276 35q48 0 91.5 18.5t76 51t51.5 75.5t19 92q0 34 -12.5 64.5t-36.5 54t-58.5 37t-78.5 13.5q-47 0 -88 -19t-72.5 -51.5t-49.5 -75t-18 -90.5q0 -39 13 -70.5t36.5 -53.5t56 -34t70.5 -12zM271 -11q-48 0 -89 16.5t-71 45t-47 67.5t-17 84q0 59 23.5 110.5t62.5 90
t89.5 60.5t104.5 22q55 0 92 -16t62 -37l-82 195l-154 -68l-22 40l158 70l-26 61h59l16 -40l111 49l22 -40l-116 -51l73 -184q12 -31 21 -56.5t15 -48t8.5 -43.5t2.5 -42q0 -54 -22 -105t-61 -91t-93.5 -64.5t-119.5 -24.5z" />
    <glyph glyph-name="apple" horiz-adv-x="967" 
d="M417 64q0 -7 -2.5 -12t-9.5 -5q-6 0 -9 5t-3 12q0 16 12 16t12 -16zM352 64h-3q-8 0 -8 8q0 6 7 6q4 0 4 -4v-10zM553 79q4 0 0 -9q-5 9 0 9zM393 182q0 -7 -4 -7h-5q-11 0 -18.5 10t-7.5 22q0 17 14 17h6q3 -1 3.5 -1.5t2.5 -5.5zM716 187q0 -13 -11 -13q-9 0 -17 11.5
t-8 26.5q0 14 11 14q9 0 17 -11.5t8 -27.5zM275 200q-8 0 -11.5 5t-3.5 10q0 9 8 9t9 -5l3 -19h-5zM381 384q-13 0 -13 11t13 11h11v-22h-11zM684 535q0 -13 -11 -13q-9 0 -17 11.5t-8 26.5q0 14 11 14q9 0 17 -11.5t8 -27.5zM272 553q-3 -4 -7 -4t-4 2q0 3 4 3q5 0 7 -1z
M566 553q-3 -4 -7 -4t-4 2q0 3 4 3q5 0 7 -1zM171 548q-8 0 -11.5 5t-3.5 10q0 9 8 9t9 -5l3 -19h-5zM441 -88q0 13 -11 13t-11 -12q0 -13 11 -13t11 12zM800 -88q0 13 -11 13t-11 -12q0 -13 11 -13t11 12zM559 -80l-5 -12h10zM394 -83q0 8 -11 7v-13q11 0 11 6zM525 -82
q0 8 -11 6v-12q11 -1 11 6zM606 -83q0 8 -11 7v-13q11 0 11 6zM309 48q-2 0 -3 1q-3 1 -3 5v20q0 2 3 4q1 1 3 1v2h-18v-2q1 0 3 -1q3 -3 3 -4v-9q-2 0 -4 2l-8 8q-3 1 -1 3q1 1 2 1v2h-14v-2q1 0 3 -1t2.5 -1.5t2.5 -1.5l10 -9l-13 -13q-1 -1 -2 -1.5t-2 -1.5q-2 -1 -3 -2
v-2h17v2q-2 0 -3 1t1 4l8 8q2 2 4 2v-9q0 -2 -3 -5q-2 -1 -3 -1v-2h18v2zM364 48q-2 0 -3 1q-2 2 -2 4v20q0 3 2 5q1 1 3 1v2h-18q-13 0 -13 -9q0 -5 9 -9l-7 -10q-2 -2 -3.5 -2.5t-2.5 -1.5l-2 -1v-2h11l7 12q3 4 7 4v-9q0 -2 -1 -2.5t-2 -1.5t-2 -1v-2h17v2zM425 64
q0 8 -5 13t-15 5t-15 -5t-5 -13t5 -13.5t15 -5.5t15 5.5t5 13.5zM480 81h-15v-2q1 0 2 -1t-1 -4l-6 -9l-6 9q-2 2 0 4q1 1 3 1v2h-15v-2q1 0 3 -1t5 -4l8 -12v-8q0 -2 -3 -5q-1 -1 -2 -1v-2h17v2q-2 0 -3 1q-2 2 -2 5v8l8 12q1 2 2.5 2.5t2.5 1.5t2 1v2zM568 81v-2q1 0 2 -1
t0 -4l-9 -19l-5 10l4 8q1 2 2 2.5t2 1.5l2 2v2h-26l1 -2q1 0 2 -1l2 -2l3 -3l3 -5l-7 -13l-8 18q-2 3 0 5q1 1 2 1v2h-13v-2q1 0 2 -1q3 -3 4 -5l13 -27h1q1 -1 1 0l8 16l9 -16h1l12 27q1 2 2.5 3t2.5 2t2 1v2h-15zM633 48q-2 -1 -3 0q-2 0 -2 5v21q0 3 2 5h3v2h-29l-2 -10
l2 -1q0 2 2 4q2 4 7 4h4q4 0 4 -3v-10h-4q-3 0 -5 2q-1 1 -1 3h-2v-13h2q0 1 1 3q3 3 5 3h4v-11q0 -3 -4 -3h-4q-4 0 -8 4q-2 2 -2 5l-2 -1l2 -11h30v2zM694 48q-2 0 -3 1q-3 1 -3 4v20q0 2 3 4q1 1 3 2v2h-10l-24 -26v18q0 3 3 5q1 1 3 1v2h-15v-2q1 0 3 -1q3 -3 3 -5v-28
h3l25 28v-20q0 -1 -3 -4q-1 -1 -2 -1v-2h14v2zM827 133h-685v-6h685v6zM306 174q-2 0 -4 1t-3.5 2t-2.5 5l-7 35q-1 5 3 7q2 1 4 1l-1 3h-27q-20 0 -20 -15q0 -6 5.5 -10t13.5 -5l-9 -16q-2 -4 -4.5 -5t-4.5 -2q-3 -1 -5 -1l1 -3h19l12 23q1 3 5 3l3 -15q1 -5 -3 -7
q-2 -1 -4 -1l1 -3h29zM413 175q-2 -1 -4 0q-5 2 -6 9l-8 31q-3 9 8 10l-1 3h-30q-9 0 -17 -5.5t-8 -16.5q0 -16 11 -25.5t24 -9.5h32zM522 174q-1 0 -3 1q-5 2 -6 9l-7 32q-1 6 3 8q2 1 5 1l-1 3h-14l-29 -42l-5 30q-1 6 3 8q2 1 4 1l-1 3h-21l1 -3q2 0 4 -1q3 -2 5 -8
l8 -45l3 -1l30 44l6 -30q1 -7 -2 -9q-2 -1 -4 -1l1 -3h21zM620 228h-29l1 -3q2 0 4 -1q5 -2 6 -8l5 -21q2 -10 1 -15t-12 -5q-8 0 -13 6.5t-7 15.5l-4 19q-1 7 3 9q2 1 4 0v3h-24l1 -3q2 0 5 -1q5 -2 6 -8l4 -19q2 -8 8 -17.5t20 -9.5q17 0 19 8t0 16l-5 22q-2 4 -0.5 6
t3.5 3t5 0zM822 174q-2 0 -4 1t-3.5 2t-2.5 5l-7 35q-1 5 3 7q2 1 4 1l-1 3h-45v-10v-7h4q-1 3 1 6q2 7 12 7h4q5 0 6 -6l3 -16h-4q-5 0 -9 4q-2 2 -3 5h-3l5 -23h3q0 2 1 5q2 6 7 6h4l3 -17q1 -5 -3 -7q-2 -1 -4 -1l1 -3h29zM203 217q-3 5 -6.5 9t-11.5 4q-15 0 -14 -23
q-3 10 -8 16.5t-13 6.5q-5 0 -8.5 -3t-3.5 -9l3 -1q0 6 8 6q10 0 15.5 -10.5t8.5 -22.5q2 -7 1 -9.5t-3 -4.5t-4 -1l1 -4h28l-1 4q-2 -1 -4 0q-5 2 -6 9q-5 17 -5 25q0 13 9 13q5 0 7.5 -2.5l4.5 -4.5zM728 192q0 15 -11.5 26.5t-25.5 11.5q-7 0 -15 -5t-8 -17
q0 -16 11.5 -27t25.5 -11q7 0 15 5t8 17zM827 277h-685v-6h685v6zM283 341h-14v65h14v34h-141v-62h41v28h33v-20h-24v-24h24v-21h-33v28h-41v-61h141v33zM458 341h-14v65h14v34h-96q-22 0 -34.5 -11.5t-12.5 -28.5t12.5 -28.5t34.5 -11.5h30v-19h-15v-33h81v33zM648 440h-81
v-34h11l-15 -23l-15 23h10v34h-62v-34h12l37 -46v-19h-14v-33h81v33h-15v20l37 45h14v34zM827 440h-147v-62h36v28h11v-65h-14v-33h81v33h-14v65h11v-28h36v62zM827 481h-685v-6h685v6zM400 521q0 2 -3 5t-10 4q-4 3 -4.5 10.5t-2 16t-6 15t-16.5 6.5q-5 0 -9 -3.5t-4 -6.5
q0 -5 5 -5q4 0 4 6t5 6t6.5 -5t2.5 -12t3.5 -14.5t8.5 -13.5q-11 0 -14.5 -6.5t-8.5 -6.5t-5 4q0 2 1 2.5t1 2.5q0 5 -5 5t-5 -7q0 -5 5 -8.5t10 -3.5q13 0 15 6.5t10 6.5q3 -7 12 -7q4 0 4 3zM202 522q-2 0 -4 1t-3.5 2t-2.5 5l-7 35q-1 5 3 7q2 1 4 1l-1 3h-27
q-20 0 -20 -15q0 -6 5.5 -10t13.5 -5l-9 -16q-2 -4 -4.5 -5t-4.5 -2q-3 -1 -5 -1l1 -3h19l12 23q1 3 5 3l3 -15q1 -5 -3 -7q-2 -1 -4 -1l1 -3h29zM497 522q-2 0 -4 1t-3.5 2t-2.5 5l-7 35q-1 5 3 7q2 1 4 1l-1 3h-45v-10v-7h4q-1 3 1 6q2 7 12 7h4q5 0 6 -6l3 -16h-4
q-5 0 -9 4q-2 2 -3 5h-3l5 -23h3q0 2 1 5q2 6 7 6h4l3 -17q1 -5 -3 -7q-2 -1 -4 -1l1 -3h29zM820 522q-2 0 -4 1t-3.5 2t-2.5 5l-7 35q-1 5 3 7q2 1 4 1l-1 3h-28l1 -3q2 0 4 -1q4 -2 5 -7l3 -15h-24l-3 15q-1 5 3 7q2 1 4 1l-1 3h-29l1 -3q2 0 4 -1q5 -2 6 -7l7 -35
q1 -5 -3 -7q-2 -1 -4 -1l1 -3h29l-1 3q-2 0 -4 1t-3.5 2t-2.5 5l-3 16h24l3 -16q1 -5 -3 -7q-2 -1 -4 -1l1 -3h29zM295 537q0 12 -14 17q5 3 5 9q0 5 -5 10t-16 5q-13 0 -13 -11q0 -6 5 -6q4 0 4 3t-1.5 3.5t-1.5 2.5q0 5 7 5q10 0 10 -12q0 -4 -2 -6q-16 2 -16 -6
q0 -6 8 -6q6 0 11 5q6 -5 6 -15q0 -14 -12 -14t-12 9q0 3 3 3q1 0 2 -1t3 -1q4 0 4 5t-7 5q-9 0 -9 -10q0 -13 16 -13q13 0 19 5.5t6 13.5zM589 537q0 12 -14 17q5 3 5 9q0 5 -5 10t-16 5q-13 0 -13 -11q0 -6 5 -6q4 0 4 3t-1.5 3.5t-1.5 2.5q0 5 7 5q10 0 10 -12
q0 -4 -2 -6q-16 2 -16 -6q0 -6 8 -6q6 0 11 5q6 -5 6 -15q0 -14 -12 -14t-12 9q0 3 3 3q1 0 2 -1t3 -1q4 0 4 5t-7 5q-9 0 -9 -10q0 -13 16 -13q13 0 19 5.5t6 13.5zM696 540q0 15 -11.5 26.5t-25.5 11.5q-7 0 -15 -5t-8 -17q0 -16 11.5 -27t25.5 -11q7 0 15 5t8 17z
M827 624h-685v-6h685v6zM439 664q-2 -1 -3 0q-2 0 -2 5v21q0 3 2 5h3v2h-29l-2 -10l2 -1q0 2 2 4q2 4 7 4h4q4 0 4 -3v-10h-4q-3 0 -5 2q-1 1 -1 3h-2v-13h2q0 1 1 3q3 3 5 3h4v-11q0 -3 -4 -3h-4q-4 0 -8 4q-2 2 -2 5l-2 -1l2 -11h30v2zM504 664q-2 -1 -3 0q-3 0 -3 5v21
q0 3 3 5h3v2h-18v-1v-1h2q3 -3 3 -5v-9h-17v9q0 3 2 5h3v1v1h-17v-2h2q3 -3 3 -5v-21q0 -2 -1 -2.5t-2 -1.5t-2 -1v-2h17v2q-2 0 -3 1q-2 2 -2 4v10h17v-10q0 -5 -3 -5q-1 -1 -2 0v-2h18v2zM559 686v4q0 2 -0.5 4t-0.5 4q-2 -1 -17 -1t-18 1q0 -2 -0.5 -4t-0.5 -4v-4h2
q1 2 3 4q5 5 7 5q3 0 3 -3v-23q0 -5 -3 -5q-1 -1 -2 0v-2h17v2q-2 -1 -3 0q-2 0 -2 5v23q0 3 3 3t8 -5q2 -2 2 -4h2zM284 -101q0 -4 -4 -4t-4 4t4 4t4 -4zM716 -101q0 -4 -4 -4t-4 4t4 4t4 -4zM143 -105h-1l-11 23l-10 -23h-1l-12 34l6 1l7 -23l10 23h1l10 -23l7 22h6z
M199 -105h-1l-11 23l-10 -23h-1l-12 34l6 1l7 -23l10 23h1l10 -23l7 22h6zM255 -105h-1l-11 23l-10 -23h-1l-12 34l6 1l7 -23l10 23h1l10 -23l7 22h6zM323 -76h-12v-28h-6v28h-12v5h30v-5zM351 -90v-14h-6v14l-14 19l6 1l11 -15l9 14h7zM400 -82q0 -12 -17 -12v-10h-6v33
q14 2 18.5 -2t4.5 -9zM447 -87q0 -8 -4.5 -13t-12.5 -5t-12.5 5t-4.5 12q0 8 5 13t13 5q7 0 11.5 -5t4.5 -12zM491 -101q-6 -4 -13 -4q-8 0 -13 4.5t-5 12.5t5.5 13t13.5 5q6 0 12 -4l-2 -5q-4 4 -11 4q-12 0 -12 -13q0 -12 13 -12q2 0 6 2v7h-9v5h15v-15zM527 -104l-8 11
h-5v-11h-6v33q14 2 18.5 -1.5t4.5 -8.5q0 -7 -7 -10l10 -13h-7zM570 -104l-4 8h-14l-3 -8h-6l15 34h2l16 -34h-6zM612 -82q0 -12 -17 -12v-10h-6v33q14 2 18.5 -2t4.5 -9zM650 -104v15h-16v-15h-6v33h6v-13h16v13h6v-33h-6zM689 -90v-14h-6v14l-14 19l6 1l11 -15l9 14h7z
M757 -102q-3 -3 -10 -3q-18 0 -18 17q0 8 5 13t13 5q6 0 11 -3l-2 -5q-3 3 -9 3q-5 0 -8.5 -3.5t-3.5 -8.5q0 -13 13 -13q4 0 10 4zM806 -87q0 -8 -4.5 -13t-12.5 -5t-12.5 5t-4.5 12q0 8 5 13t13 5q7 0 11.5 -5t4.5 -12zM853 -104l-3 20l-10 -21h-2l-10 21l-3 -20h-6l6 34
h1l13 -26l13 26h1l6 -34h-6zM101 0v750h767v-750h-767z" />
    <glyph glyph-name="Eth" unicode="&#xd0;" horiz-adv-x="801" 
d="M302 48q95 0 173.5 31t136.5 89q45 45 69.5 104.5t24.5 129.5q0 108 -65 171q-39 39 -98.5 59t-134.5 20h-115l-74 -276h232l-13 -48h-232l-75 -280h171zM154 328h-75l13 48h75l87 324h157q82 0 153 -23t119 -71q37 -37 57 -86t20 -114q0 -81 -28 -149.5t-81 -121.5
q-63 -63 -155 -99t-201 -36h-229z" />
  </font>
</defs>
</svg>
