<?xml version="1.0" standalone="no"?>
<!DOCTYPE svg PUBLIC "-//W3C//DTD SVG 1.1//EN" "http://www.w3.org/Graphics/SVG/1.1/DTD/svg11.dtd" >
<svg>
<metadata>
Created by FontForge 20120731 at Wed Jul 20 14:37:39 2016
 By ,,,
HTF Gotham  Copr. 2002 The Hoefler Type Foundry, Inc. Info: www.typography.com
</metadata>
<defs>
<font id="GothamMedium-Italic" horiz-adv-x="500" >
  <font-face 
    font-family="Gotham Medium"
    font-weight="500"
    font-style="italic"
    font-stretch="normal"
    units-per-em="1000"
    panose-1="2 0 6 3 4 0 0 9 0 4"
    ascent="800"
    descent="-200"
    x-height="528"
    cap-height="700"
    bbox="-131 -200 1221 922"
    underline-thickness="20"
    underline-position="-113"
    slope="-12"
    unicode-range="U+0020-FB02"
  />
<missing-glyph 
 />
    <glyph glyph-name="fi" unicode="fi" horiz-adv-x="683" 
d="M550 528h121l-142 -528h-121zM147 424h-67l28 104h67l10 43q23 85 73.5 124.5t127.5 39.5q32 0 58 -5t46 -13l-27 -101q-38 16 -74 16q-67 0 -87 -74l-8 -30h146l-28 -104h-144l-114 -424h-121zM599 724h130l-31 -115h-131z" />
    <glyph glyph-name="fl" unicode="fl" horiz-adv-x="683" 
d="M604 730h121l-196 -730h-121zM147 424h-67l28 104h67l10 43q23 85 73.5 124.5t127.5 39.5q32 0 58 -5t46 -13l-27 -101q-38 16 -74 16q-67 0 -87 -74l-8 -30h146l-28 -104h-144l-114 -424h-121z" />
    <glyph glyph-name=".notdef" 
 />
    <glyph glyph-name="NUL" horiz-adv-x="0" 
 />
    <glyph glyph-name="nonmarkingreturn" horiz-adv-x="300" 
 />
    <glyph glyph-name="space" unicode=" " horiz-adv-x="300" 
 />
    <glyph glyph-name="exclam" unicode="!" horiz-adv-x="303" 
d="M50 137h134l-37 -137h-133zM187 665l10 35h142l-10 -35l-156 -444h-67z" />
    <glyph glyph-name="quotedbl" unicode="&#x22;" horiz-adv-x="493" 
d="M186 700h138l-1 -5l-159 -294h-64zM410 700h138l-2 -5l-159 -294h-64z" />
    <glyph glyph-name="numbersign" unicode="#" horiz-adv-x="687" 
d="M418 265l61 174h-164l-60 -174h163zM111 161h-93l28 104h102l60 174h-105l28 104h113l55 157h107l-55 -157h164l55 157h106l-54 -157h93l-27 -104h-103l-60 -174h105l-27 -104h-115l-56 -161h-106l56 161h-164l-56 -161h-107z" />
    <glyph glyph-name="dollar" unicode="$" horiz-adv-x="631" 
d="M314 106q57 2 91 27t34 68q0 26 -16 44t-58 36zM376 593q-30 1 -53.5 -6t-40 -19.5t-25 -29t-8.5 -35.5q0 -26 17.5 -43.5t61.5 -35.5zM201 8q-64 13 -116 42.5t-89 76.5l90 76q30 -35 67.5 -57.5t82.5 -32.5l56 195q-39 15 -70.5 31t-53 37t-33.5 48.5t-12 65.5
q0 45 20 83.5t55.5 66.5t83 44t103.5 16h9.5t9.5 -1l18 59h87l-20 -70q50 -12 89 -35t70 -55l-83 -82q-25 23 -52 40t-59 26l-53 -186q39 -14 69.5 -31t51.5 -38.5t32.5 -49.5t11.5 -64q0 -47 -21 -86.5t-57.5 -67.5t-87 -43.5t-108.5 -15.5h-6l-29 -98h-87z" />
    <glyph glyph-name="percent" unicode="%" horiz-adv-x="862" 
d="M633 66q23 0 42.5 12t33.5 31.5t21.5 43t7.5 46.5q0 38 -19 60t-52 22q-23 0 -42.5 -12t-33.5 -31.5t-21.5 -43.5t-7.5 -47q0 -37 19 -59t52 -22zM241 420q23 0 42.5 12t33 31t21 43t7.5 47q0 38 -18.5 59.5t-52.5 21.5q-23 0 -42 -12t-33 -31t-21.5 -43t-7.5 -47
q0 -38 19 -59.5t52 -21.5zM628 -8q-34 0 -61.5 11.5t-47 31.5t-30 47.5t-10.5 60.5q0 40 14.5 78t40 67.5t61 47.5t77.5 18q33 0 60.5 -11t47 -31t30.5 -47.5t11 -60.5q0 -40 -14.5 -78t-40 -68t-61 -48t-77.5 -18zM737 700h109l-676 -700h-108zM236 346q-34 0 -61.5 11
t-47 31.5t-30 48t-10.5 60.5q0 39 14.5 77t40 68t61 48t77.5 18q33 0 60.5 -11t47 -31.5t30.5 -48t11 -60.5q0 -39 -14.5 -77t-40 -68t-61 -48t-77.5 -18z" />
    <glyph glyph-name="ampersand" unicode="&#x26;" horiz-adv-x="694" 
d="M254 92q78 0 157 62l-123 171q-77 -24 -111 -62.5t-34 -80.5q0 -40 28.5 -65t82.5 -25zM341 428q42 13 69 27t43 28t22.5 29t6.5 32q0 28 -20.5 49.5t-58.5 21.5q-21 0 -38.5 -7.5t-30.5 -20.5t-20 -29.5t-7 -35.5q0 -20 7.5 -42.5t26.5 -51.5zM467 76
q-52 -42 -106.5 -64t-119.5 -22q-47 0 -86.5 12.5t-68 36t-45 57.5t-16.5 78q0 70 51 130t162 94q-19 32 -29.5 63.5t-10.5 61.5q0 38 15 72.5t43 60.5t67 41t86 15q41 0 75 -12t58 -33.5t37.5 -51t13.5 -64.5q0 -26 -9.5 -52.5t-32.5 -51.5t-61.5 -48t-96.5 -41l98 -135
q25 27 48 59.5t46 69.5l77 -52q-57 -89 -114 -152l75 -104l-91 -58z" />
    <glyph glyph-name="quotesingle" unicode="'" horiz-adv-x="269" 
d="M186 700h138l-1 -5l-159 -294h-64z" />
    <glyph glyph-name="parenleft" unicode="(" horiz-adv-x="440" 
d="M251 -142q-82 68 -131.5 156t-49.5 198q0 79 25.5 153t75.5 138.5t124 118.5t171 93l44 -90q-81 -36 -140.5 -83t-98.5 -100t-58 -110.5t-19 -115.5q0 -86 38 -155t93 -127z" />
    <glyph glyph-name="parenright" unicode=")" horiz-adv-x="440" 
d="M-57 -49q81 36 140.5 83t98.5 100t58 110.5t19 115.5q0 43 -10 81.5t-28 73.5t-42 66t-52 60l75 77q82 -68 131.5 -156t49.5 -198q0 -79 -25.5 -153t-75.5 -139t-124 -118.5t-171 -92.5z" />
    <glyph glyph-name="asterisk" unicode="*" horiz-adv-x="430" 
d="M208 396l45 115l-116 -45l-19 69l124 18l-97 78l50 50l77 -97l19 121l67 -17l-45 -115l116 45l19 -68l-124 -19l98 -77l-51 -51l-77 97l-18 -121z" />
    <glyph glyph-name="plus" unicode="+" horiz-adv-x="646" 
d="M275 297h-192l30 110h192l50 191h115l-51 -191h192l-30 -110h-192l-51 -191h-114z" />
    <glyph glyph-name="comma" unicode="," horiz-adv-x="293" 
d="M-54 -94q54 8 80.5 32t34.5 62h-52l37 137h133l-31 -116q-11 -43 -28 -73t-41 -49.5t-54.5 -30t-69.5 -13.5z" />
    <glyph glyph-name="hyphen" unicode="-" horiz-adv-x="411" 
d="M85 366h296l-32 -119h-296z" />
    <glyph glyph-name="hyphen" unicode="&#xad;" horiz-adv-x="411" 
d="M85 366h296l-32 -119h-296z" />
    <glyph glyph-name="period" unicode="." horiz-adv-x="293" 
d="M46 137h133l-37 -137h-133z" />
    <glyph glyph-name="slash" unicode="/" horiz-adv-x="521" 
d="M561 798h116l-692 -926h-116z" />
    <glyph glyph-name="zero" unicode="0" horiz-adv-x="724" 
d="M339 99q51 0 94 30.5t74 78t48.5 106.5t17.5 116q0 79 -37.5 125t-106.5 46q-51 0 -94 -30.5t-74 -78t-48.5 -106.5t-17.5 -116q0 -79 37.5 -125t106.5 -46zM330 -12q-60 0 -108.5 20.5t-82.5 57.5t-52.5 89t-18.5 115q0 79 26 158t74 142t116.5 102.5t154.5 39.5
q60 0 108.5 -20.5t82 -57.5t52 -89t18.5 -115q0 -79 -26 -158t-74 -142t-116.5 -102.5t-153.5 -39.5z" />
    <glyph glyph-name="one" unicode="1" horiz-adv-x="404" 
d="M248 573l-133 -34l-2 106l207 60h85l-189 -705h-122z" />
    <glyph glyph-name="two" unicode="2" horiz-adv-x="606" 
d="M0 100l373 268q54 39 81 73t27 72q0 40 -28 63t-78 23q-51 0 -94 -25.5t-83 -65.5l-77 79q50 54 114 88.5t145 34.5q51 0 93 -13.5t72 -38t46.5 -58.5t16.5 -75q0 -32 -8.5 -60t-27.5 -55.5t-49.5 -55t-73.5 -58.5l-260 -188h327l-29 -108h-514z" />
    <glyph glyph-name="three" unicode="3" horiz-adv-x="605" 
d="M244 -12q-96 0 -158 37t-95 97l93 66q28 -42 66.5 -65.5t99.5 -23.5q34 0 62.5 9.5t49.5 26t33 38.5t12 47q0 49 -41.5 73.5t-113.5 24.5h-38l-8 75l238 200h-298l29 107h466l-25 -92l-250 -204q36 -6 66 -19t52.5 -34.5t35 -51t12.5 -68.5q0 -52 -22.5 -96.5t-61.5 -77
t-91.5 -51t-112.5 -18.5z" />
    <glyph glyph-name="four" unicode="4" horiz-adv-x="655" 
d="M400 258l75 279l-298 -279h223zM373 157h-340l-13 91l498 457h119l-120 -447h100l-27 -101h-100l-42 -157h-117z" />
    <glyph glyph-name="five" unicode="5" horiz-adv-x="607" 
d="M251 -11q-40 0 -78 9.5t-70.5 26.5t-59 40t-44.5 49l88 71q35 -42 77 -64t97 -22q37 0 68 11t53 30t34 43.5t12 51.5q0 48 -36.5 78t-105.5 30q-26 0 -57 -8t-57 -21l-64 52l109 334h411l-31 -109h-299l-53 -161q19 7 43.5 11.5t46.5 4.5q49 0 89.5 -14t69.5 -40t45 -63
t16 -82q0 -51 -21.5 -98t-61.5 -82.5t-96 -56.5t-125 -21z" />
    <glyph glyph-name="six" unicode="6" horiz-adv-x="642" 
d="M315 93q35 0 64 12t49.5 32t32 46t11.5 54q0 47 -32.5 79t-92.5 32q-36 0 -66 -11.5t-51 -31t-32.5 -45t-11.5 -52.5q0 -48 32 -80q37 -35 97 -35zM314 -12q-54 0 -100 16.5t-77 47.5q-35 35 -53 82t-18 114q0 105 36 200t102 161q48 48 109.5 75.5t135.5 27.5
q68 0 121 -23.5t91 -61.5l-73 -87q-29 27 -65 44t-84 17q-87 0 -149 -63q-30 -30 -54 -74t-33 -92q25 30 72.5 53.5t105.5 23.5q46 0 86 -14t68.5 -40t45 -62.5t16.5 -81.5q0 -51 -21.5 -98.5t-60 -84t-90 -58.5t-111.5 -22z" />
    <glyph glyph-name="seven" unicode="7" horiz-adv-x="600" 
d="M476 592h-346l29 108h492l-26 -93l-450 -607h-145z" />
    <glyph glyph-name="eight" unicode="8" horiz-adv-x="656" 
d="M305 91q34 0 63.5 8t50.5 22.5t33 35t12 45.5q0 44 -40.5 74t-109.5 30q-72 0 -115 -32.5t-43 -79.5q0 -23 10.5 -41.5t30 -32.5t47 -21.5t61.5 -7.5zM377 405q32 0 58 8.5t44 23t28 34t10 40.5q1 41 -33.5 69t-97.5 28q-30 0 -55 -8t-43.5 -22t-29 -33.5t-10.5 -41.5
q-1 -42 34.5 -70t94.5 -28zM298 -10q-55 0 -103 14.5t-84 40t-56.5 61t-20.5 77.5q0 41 14.5 73t40 56t60.5 40t75 25q-42 19 -67 56t-25 83q0 36 17.5 71t50.5 62t81 44t110 17q54 0 98.5 -13.5t76.5 -38.5t50 -59t18 -74q0 -69 -44.5 -115t-116.5 -62q47 -18 79.5 -56.5
t32.5 -95.5q0 -41 -20 -78t-57.5 -65.5t-90.5 -45.5t-119 -17z" />
    <glyph glyph-name="nine" unicode="9" horiz-adv-x="642" 
d="M343 345q35 0 64.5 12t50.5 32t32.5 46t11.5 55q0 24 -8.5 45t-23.5 36q-36 36 -97 36q-35 0 -64 -12t-50 -32.5t-32.5 -47.5t-11.5 -57q0 -49 33.5 -81t94.5 -32zM243 -12q-66 0 -122.5 24t-101.5 68l74 87q35 -32 71.5 -50.5t84.5 -18.5q86 0 150 65q31 30 53 71.5
t32 86.5q-12 -14 -30.5 -28t-41 -25t-49.5 -18t-57 -7q-47 0 -86.5 14t-68 40t-45 63t-16.5 84q0 55 22 104t60.5 85.5t90 57.5t111.5 21q51 0 98.5 -16.5t78.5 -47.5q35 -34 53 -82.5t18 -123.5q0 -102 -37 -194t-103 -158q-49 -49 -109 -75.5t-130 -26.5z" />
    <glyph glyph-name="colon" unicode=":" horiz-adv-x="296" 
d="M48 137h133l-37 -137h-133zM153 528h133l-37 -137h-133z" />
    <glyph glyph-name="semicolon" unicode=";" horiz-adv-x="296" 
d="M-53 -94q54 8 81 32t34 62h-51l37 137h133l-31 -116q-12 -43 -29 -73t-41 -49.5t-54.5 -30t-69.5 -13.5zM153 528h133l-37 -137h-133z" />
    <glyph glyph-name="semicolon" unicode="&#x37e;" horiz-adv-x="296" 
d="M-53 -94q54 8 81 32t34 62h-51l37 137h133l-31 -116q-12 -43 -29 -73t-41 -49.5t-54.5 -30t-69.5 -13.5zM153 528h133l-37 -137h-133z" />
    <glyph glyph-name="less" unicode="&#x3c;" horiz-adv-x="640" 
d="M74 298l29 108l537 221l-33 -121l-400 -159l315 -160l-29 -110z" />
    <glyph glyph-name="equal" unicode="=" horiz-adv-x="640" 
d="M92 283h468l-30 -112h-468zM159 533h468l-30 -112h-468z" />
    <glyph glyph-name="greater" unicode="&#x3e;" horiz-adv-x="640" 
d="M71 198l400 159l-315 160l29 110l419 -221l-29 -108l-537 -221z" />
    <glyph glyph-name="question" unicode="?" horiz-adv-x="541" 
d="M136 137h133l-37 -137h-133zM205 383l6 5q101 8 158 40t57 87q0 39 -27 60.5t-76 21.5q-44 0 -85.5 -19t-73.5 -49l-66 81q46 47 108.5 73t132.5 26q51 0 91 -14.5t67.5 -39t42.5 -57.5t15 -69q0 -92 -69.5 -147.5t-189.5 -73.5l-33 -87h-81z" />
    <glyph glyph-name="at" unicode="@" horiz-adv-x="980" 
d="M456 151q29 0 57.5 14t51 37.5t36.5 55t14 66.5q0 44 -27.5 70.5t-72.5 26.5q-29 0 -56.5 -13.5t-48.5 -37.5t-33.5 -55.5t-12.5 -67.5q0 -45 25 -70.5t67 -25.5zM476 -157q-93 0 -170 28.5t-132 80t-85.5 123t-30.5 157.5q0 97 38 184.5t104 153.5t155.5 105t191.5 39
q94 0 168 -28t125.5 -75.5t79 -110.5t27.5 -133q0 -77 -20 -133t-52.5 -93.5t-73 -55.5t-81.5 -18q-52 0 -86.5 23t-47.5 61q-33 -37 -73.5 -61t-94.5 -24q-33 0 -62 11t-50.5 32.5t-34.5 53t-13 71.5q0 59 21.5 109t57 86.5t80 57t90.5 20.5q54 0 87 -23.5t51 -58.5l22 73
l92 -25l-78 -247q-17 -54 1 -84.5t61 -30.5q26 0 55 16t53 48.5t40 80.5t16 111t-25 119.5t-71.5 98.5t-113 67t-150.5 25q-94 0 -176 -36t-142.5 -97.5t-95.5 -142t-35 -169.5q0 -78 27.5 -143t77 -111.5t119.5 -72t154 -25.5q56 0 105 11t100 34l16 -33
q-55 -26 -108 -37.5t-113 -11.5z" />
    <glyph glyph-name="A" unicode="A" horiz-adv-x="763" 
d="M516 278l-45 283l-196 -283h241zM447 705h118l119 -705h-126l-27 169h-331l-117 -169h-133z" />
    <glyph glyph-name="B" unicode="B" horiz-adv-x="717" 
d="M371 109q74 0 116.5 29t42.5 80q0 40 -33 61.5t-90 21.5h-187l-51 -192h202zM422 405q74 0 116 27.5t42 79.5q0 37 -28.5 58t-87.5 21h-166l-50 -186h174zM207 700h268q58 0 101 -13t71.5 -35.5t42.5 -53t14 -66.5q0 -72 -45 -117.5t-115 -60.5q47 -18 77.5 -52t30.5 -91
q0 -47 -20 -85.5t-58 -66.5t-93.5 -43.5t-126.5 -15.5h-335z" />
    <glyph glyph-name="C" unicode="C" horiz-adv-x="730" 
d="M391 -12q-68 0 -125.5 20.5t-100 59.5t-66.5 94t-24 124q0 84 33 161.5t90.5 136t134.5 93.5t165 35q100 0 167 -40.5t106 -109.5l-102 -69q-16 24 -34 43.5t-40 33.5t-49.5 21.5t-61.5 7.5q-56 0 -107 -25t-89.5 -67.5t-61.5 -98.5t-23 -117q0 -43 14 -78t39.5 -60
t60 -38.5t76.5 -13.5q60 0 102 22t84 58l81 -82q-50 -48 -114 -79.5t-155 -31.5z" />
    <glyph glyph-name="D" unicode="D" horiz-adv-x="775" 
d="M285 112q78 0 143.5 24t112.5 71q38 38 58 87t20 106q0 42 -13 74t-36 55q-28 28 -73 43.5t-109 15.5h-87l-129 -476h113zM207 700h190q97 0 164 -24.5t109 -66.5q77 -76 77 -204q0 -79 -29 -149t-84 -125q-63 -63 -154.5 -97t-209.5 -34h-251z" />
    <glyph glyph-name="E" unicode="E" horiz-adv-x="660" 
d="M207 700h514l-30 -110h-391l-49 -183h347l-30 -109h-347l-50 -188h397l-30 -110h-519z" />
    <glyph glyph-name="F" unicode="F" horiz-adv-x="661" 
d="M207 700h521l-30 -112h-398l-51 -191h353l-30 -112h-353l-76 -285h-124z" />
    <glyph glyph-name="G" unicode="G" horiz-adv-x="782" 
d="M395 -12q-62 0 -119.5 19t-102.5 56.5t-72 94t-27 131.5q0 81 33 157.5t91 135.5t137.5 94.5t172.5 35.5q55 0 98.5 -10t77.5 -27.5t58.5 -40t42.5 -46.5l-92 -78q-15 18 -33.5 34.5t-42 28.5t-52.5 19t-66 7q-63 0 -117.5 -25.5t-94 -68t-62 -97.5t-22.5 -115
q0 -46 15 -82t42 -60.5t63.5 -37.5t79.5 -13q48 0 84.5 11t63.5 25l43 148h-179l29 107h298l-95 -335q-54 -32 -114.5 -50t-137.5 -18z" />
    <glyph glyph-name="H" unicode="H" horiz-adv-x="756" 
d="M207 700h124l-78 -291h329l78 291h123l-188 -700h-123l79 295h-329l-79 -295h-124z" />
    <glyph glyph-name="I" unicode="I" horiz-adv-x="317" 
d="M214 700h124l-188 -700h-124z" />
    <glyph glyph-name="J" unicode="J" horiz-adv-x="564" 
d="M190 -10q-73 0 -130 34.5t-89 95.5l90 71q26 -45 58 -66t76 -21q32 0 58 11.5t46 31.5q10 10 18.5 22t16.5 28.5t15.5 40t15.5 55.5l109 407h127l-117 -435q-10 -38 -20 -67.5t-21.5 -53.5t-25.5 -44t-32 -38q-38 -37 -86.5 -54.5t-108.5 -17.5z" />
    <glyph glyph-name="K" unicode="K" horiz-adv-x="723" 
d="M207 700h124l-95 -354l410 354h169l-356 -299l179 -401h-136l-141 328l-169 -142l-49 -186h-124z" />
    <glyph glyph-name="L" unicode="L" horiz-adv-x="618" 
d="M207 700h124l-158 -588h368l-31 -112h-491z" />
    <glyph glyph-name="M" unicode="M" horiz-adv-x="868" 
d="M207 700h125l122 -331l300 331h141l-188 -700h-125l135 502l-308 -330h-4l-129 328l-134 -500h-123z" />
    <glyph glyph-name="N" unicode="N" horiz-adv-x="786" 
d="M207 700h114l237 -495l134 495h121l-188 -700h-103l-245 509l-136 -509h-122z" />
    <glyph glyph-name="O" unicode="O" horiz-adv-x="836" 
d="M403 101q61 0 111.5 26.5t87 68.5t56.5 95t20 107q0 43 -13.5 80t-39 64t-62.5 42t-84 15q-61 0 -111.5 -26.5t-87 -68.5t-56.5 -95t-20 -107q0 -44 13.5 -80.5t39 -63.5t62.5 -42t84 -15zM390 -12q-71 0 -128.5 23.5t-99 64.5t-64 97.5t-22.5 121.5q0 79 31 154.5
t86 133.5t131 93.5t167 35.5q70 0 128.5 -23.5t99.5 -65t64 -97.5t23 -121q0 -80 -31 -155t-86 -133t-131.5 -93.5t-167.5 -35.5z" />
    <glyph glyph-name="P" unicode="P" horiz-adv-x="674" 
d="M356 336q97 0 152.5 38.5t55.5 108.5q0 42 -27 69q-36 36 -113 36h-124l-67 -252h123zM207 700h221q72 0 124 -16t88 -53q52 -52 52 -138q0 -63 -25.5 -112.5t-71 -83.5t-108.5 -52t-137 -18h-146l-61 -227h-124z" />
    <glyph glyph-name="Q" unicode="Q" horiz-adv-x="836" 
d="M403 101q33 0 63 8.5t56 23.5l-99 124l101 69l84 -120q33 41 51.5 91t18.5 101q0 43 -13.5 80t-39 64t-62.5 42t-84 15q-61 0 -111.5 -26.5t-87 -68.5t-56.5 -95t-20 -107q0 -44 13.5 -80.5t39 -63.5t62.5 -42t84 -15zM586 39q-43 -24 -92 -37.5t-104 -13.5
q-71 0 -128.5 23.5t-99 64.5t-64 97.5t-22.5 121.5q0 79 31 154.5t86 133.5t131 93.5t167 35.5q70 0 128.5 -23.5t99.5 -65t64 -97.5t23 -121q0 -84 -33.5 -161.5t-93.5 -136.5l61 -77l-100 -68z" />
    <glyph glyph-name="R" unicode="R" horiz-adv-x="723" 
d="M396 353q56 0 98 13.5t67 39.5q35 35 35 84q0 37 -25 64q-17 17 -46 25.5t-71 8.5h-153l-64 -235h159zM207 700h254q145 0 212 -68q51 -51 51 -132q0 -49 -16.5 -89.5t-47.5 -70.5q-31 -32 -75 -52.5t-100 -31.5l130 -256h-141l-120 244h-146l-65 -244h-124z" />
    <glyph glyph-name="S" unicode="S" horiz-adv-x="637" 
d="M296 -10q-100 0 -174.5 33.5t-122.5 97.5l93 77q43 -49 93 -74t118 -25q59 0 97 26.5t38 70.5q0 16 -6 29t-21 25t-40 24.5t-62 27.5q-40 16 -73 34t-57 40t-37 50t-13 64q0 49 21 90t57.5 69.5t85.5 44.5t105 16q88 0 151 -28.5t106 -76.5l-86 -84q-40 39 -82.5 59.5
t-97.5 20.5q-31 0 -55 -8t-40.5 -20.5t-25.5 -29t-9 -34.5q0 -17 7 -30t23 -25t42 -24.5t64 -27.5q40 -16 72.5 -33.5t55 -40t34.5 -50.5t12 -64q0 -51 -22 -92.5t-59 -71t-87 -45t-105 -15.5z" />
    <glyph glyph-name="T" unicode="T" horiz-adv-x="618" 
d="M332 586h-223l31 114h568l-31 -114h-222l-158 -586h-123z" />
    <glyph glyph-name="U" unicode="U" horiz-adv-x="762" 
d="M345 -11q-124 0 -191.5 62t-67.5 169q0 56 16 111l98 369h123l-103 -386q-5 -17 -7.5 -36t-2.5 -41q0 -60 37 -97.5t110 -37.5q78 0 131 53q25 25 44.5 61t32.5 86l107 398h123l-112 -417q-36 -134 -109 -207q-43 -43 -99.5 -65t-129.5 -22z" />
    <glyph glyph-name="V" unicode="V" horiz-adv-x="721" 
d="M130 700h132l63 -535l351 535h139l-477 -705h-109z" />
    <glyph glyph-name="W" unicode="W" horiz-adv-x="1098" 
d="M136 700h128l29 -519l309 521h104l34 -521l306 519h140l-433 -705h-113l-36 497l-302 -497h-111z" />
    <glyph glyph-name="X" unicode="X" horiz-adv-x="698" 
d="M304 363l-161 337h138l112 -250l230 250h158l-336 -352l166 -348h-138l-118 261l-240 -261h-158z" />
    <glyph glyph-name="Y" unicode="Y" horiz-adv-x="655" 
d="M263 278l-156 422h136l106 -316l277 316h152l-395 -435l-71 -265h-123z" />
    <glyph glyph-name="Z" unicode="Z" horiz-adv-x="681" 
d="M5 91l535 500h-387l30 109h557l-25 -91l-535 -500h404l-29 -109h-574z" />
    <glyph glyph-name="bracketleft" unicode="[" horiz-adv-x="454" 
d="M221 700h308l-26 -95h-192l-172 -640h192l-25 -95h-308z" />
    <glyph glyph-name="backslash" unicode="\" horiz-adv-x="521" 
d="M127 798h101l212 -926h-101z" />
    <glyph glyph-name="bracketright" unicode="]" horiz-adv-x="454" 
d="M-38 -35h192l172 640h-192l25 95h308l-223 -830h-308z" />
    <glyph glyph-name="asciicircum" unicode="^" 
d="M305 701h85l96 -208h-84l-67 132l-137 -132h-100z" />
    <glyph glyph-name="underscore" unicode="_" horiz-adv-x="600" 
d="M-89 -66h604l-25 -94h-605z" />
    <glyph glyph-name="grave" unicode="`" 
d="M262 710l113 49l61 -164h-83z" />
    <glyph glyph-name="a" unicode="a" horiz-adv-x="583" 
d="M221 78q28 0 54 10t47.5 27.5t37 40t21.5 46.5l6 23q-25 8 -55 14t-65 6q-61 0 -95.5 -26.5t-34.5 -68.5q0 -35 22.5 -53.5t61.5 -18.5zM174 -11q-34 0 -63.5 10.5t-51 29t-34 45.5t-12.5 60q0 46 17.5 81.5t49 59.5t74.5 36.5t94 12.5q44 0 83.5 -7t74.5 -19l3 11
q3 12 4.5 21t1.5 21q0 35 -27 56.5t-88 21.5q-40 0 -76.5 -8t-68.5 -21l-20 100q41 17 88 26.5t101 9.5q105 0 158.5 -43t53.5 -121q0 -19 -3 -37t-8 -38l-79 -297h-119l18 69q-35 -37 -76 -58.5t-95 -21.5z" />
    <glyph glyph-name="b" unicode="b" horiz-adv-x="668" 
d="M315 92q37 0 70 16.5t58 45.5t39.5 67.5t14.5 82.5q0 61 -34 96t-91 35q-36 0 -70.5 -17t-61 -45.5t-42.5 -66.5t-16 -80q0 -29 9.5 -53.5t27 -42.5t42 -28t54.5 -10zM329 -11q-70 0 -112 30.5t-66 74.5l-25 -94h-121l195 730h121l-73 -272q36 36 76.5 58.5t92.5 22.5
q44 0 82 -15.5t65.5 -45t43 -71.5t15.5 -94q0 -70 -24.5 -129.5t-65.5 -102.5t-94 -67.5t-110 -24.5z" />
    <glyph glyph-name="c" unicode="c" horiz-adv-x="561" 
d="M286 -12q-51 0 -95 16.5t-77 47t-51.5 74t-18.5 97.5q0 65 25 122.5t68 100.5t99.5 68t119.5 25q42 0 76 -10t60 -26.5t45 -38t33 -45.5l-94 -64q-21 34 -50 56.5t-80 22.5q-36 0 -68.5 -17t-57.5 -46t-40 -67t-15 -80q0 -31 10 -55.5t27 -41.5t39.5 -26t48.5 -9
q40 0 71.5 15.5t63.5 43.5l64 -79q-42 -38 -89 -61t-114 -23z" />
    <glyph glyph-name="d" unicode="d" horiz-adv-x="668" 
d="M296 92q36 0 70.5 17t61 46t42.5 67t16 80q0 29 -10 53.5t-27.5 42t-42 27.5t-54.5 10q-37 0 -70 -16.5t-58 -45t-39.5 -67.5t-14.5 -83q0 -60 34.5 -95.5t91.5 -35.5zM250 -11q-44 0 -81.5 15.5t-65.5 45t-43.5 71t-15.5 94.5q0 70 24.5 129.5t65.5 102.5t94 67.5
t110 24.5q70 0 112 -30.5t66 -74.5l79 296h121l-195 -730h-121l19 70q-36 -36 -76.5 -58.5t-92.5 -22.5z" />
    <glyph glyph-name="e" unicode="e" horiz-adv-x="600" 
d="M446 303q5 13 5 36q0 41 -25 71t-80 30q-62 0 -108 -38.5t-66 -98.5h274zM159 220q1 -60 35.5 -96.5t101.5 -36.5q38 0 69.5 12.5t65.5 38.5l58 -77q-38 -31 -87 -52t-118 -21q-55 0 -99.5 16t-75.5 46t-48 73t-17 96q0 58 22.5 115.5t64 103t98.5 73.5t126 28
q51 0 90 -16t66 -43.5t41 -65t14 -80.5q0 -28 -6 -56.5t-17 -57.5h-384z" />
    <glyph glyph-name="f" unicode="f" horiz-adv-x="396" 
d="M147 424h-67l28 104h67l10 43q23 85 73.5 124.5t127.5 39.5q32 0 58 -5t46 -13l-27 -101q-38 16 -74 16q-67 0 -87 -74l-8 -30h146l-28 -104h-144l-114 -424h-121z" />
    <glyph glyph-name="g" unicode="g" horiz-adv-x="666" 
d="M296 141q36 0 69.5 14.5t59 39t40.5 56.5t15 67q0 51 -34.5 84.5t-93.5 33.5q-36 0 -68 -14.5t-56.5 -39t-39 -58t-14.5 -70.5q0 -57 35.5 -85t86.5 -28zM246 -162q-78 0 -149 21.5t-122 59.5l67 84q42 -32 92.5 -49.5t104.5 -17.5q43 0 74.5 12t54.5 35q20 20 32.5 46
t22.5 61l9 32q-42 -38 -83.5 -59t-97.5 -21q-39 0 -75.5 12.5t-65 37t-45.5 60t-17 81.5q0 66 25 122t66 97t93.5 64t107.5 23q37 0 65 -9t48.5 -24t35 -34t25.5 -39l25 95h121l-116 -436q-10 -36 -19.5 -63t-20 -48t-23 -37.5t-27.5 -31.5q-37 -37 -87 -55.5t-121 -18.5z
" />
    <glyph glyph-name="h" unicode="h" horiz-adv-x="618" 
d="M200 730h121l-72 -270q32 32 70.5 55.5t89.5 23.5q74 0 117.5 -42.5t43.5 -115.5q0 -21 -5 -45.5t-11 -47.5l-76 -288h-121l78 293q4 13 6 27.5t2 25.5q0 40 -24 61.5t-68 21.5q-51 0 -90 -36.5t-55 -95.5l-80 -297h-121z" />
    <glyph glyph-name="i" unicode="i" horiz-adv-x="286" 
d="M154 528h121l-142 -528h-121zM202 724h131l-32 -115h-130z" />
    <glyph glyph-name="j" unicode="j" horiz-adv-x="285" 
d="M-48 -163q-23 0 -41 2t-36 7l26 96q10 -2 19.5 -4t20.5 -2q26 0 45 18.5t28 53.5l140 520h121l-144 -535q-12 -43 -29.5 -72.5t-40.5 -48t-50.5 -27t-58.5 -8.5zM202 724h130l-31 -115h-130z" />
    <glyph glyph-name="k" unicode="k" horiz-adv-x="582" 
d="M201 730h121l-114 -427l270 225h160l-266 -215l127 -313h-136l-94 235l-102 -82l-41 -153h-121z" />
    <glyph glyph-name="l" unicode="l" horiz-adv-x="286" 
d="M208 730h121l-196 -730h-121z" />
    <glyph glyph-name="m" unicode="m" horiz-adv-x="950" 
d="M146 528h121l-18 -68q32 32 68 55.5t87 23.5q59 0 94.5 -30.5t49.5 -75.5q35 48 84.5 77t113.5 29q72 0 114.5 -43t42.5 -115q0 -21 -5.5 -45.5t-11.5 -47.5l-77 -288h-121l79 293q3 13 5 27.5t2 25.5q0 40 -22 61.5t-64 21.5q-50 0 -87.5 -36.5t-52.5 -95.5l-80 -297
h-121l79 293q3 13 5 27.5t2 25.5q0 40 -22 61.5t-64 21.5q-51 0 -88 -36.5t-53 -95.5l-80 -297h-121z" />
    <glyph glyph-name="n" unicode="n" horiz-adv-x="617" 
d="M146 528h121l-18 -68q32 32 70.5 55.5t89.5 23.5q74 0 117.5 -42.5t43.5 -115.5q0 -21 -5 -45.5t-11 -47.5l-76 -288h-121l78 293q4 13 6 27.5t2 25.5q0 40 -24 61.5t-68 21.5q-51 0 -90 -36.5t-55 -95.5l-80 -297h-121z" />
    <glyph glyph-name="o" unicode="o" horiz-adv-x="646" 
d="M300 93q38 0 71 18t57.5 46.5t38.5 64.5t14 72q0 67 -37.5 103.5t-97.5 36.5q-39 0 -72 -18t-57.5 -47t-38 -65t-13.5 -71q0 -67 37.5 -103.5t97.5 -36.5zM293 -12q-57 0 -102.5 18t-78 50.5t-50 76.5t-17.5 96q0 60 24 116t66 99t98 69t120 26q57 0 102.5 -18t78 -50.5
t50 -77t17.5 -96.5q0 -60 -24.5 -116t-66.5 -99t-98 -68.5t-119 -25.5z" />
    <glyph glyph-name="p" unicode="p" horiz-adv-x="668" 
d="M315 92q37 0 70 16.5t58 45.5t39.5 67.5t14.5 82.5q0 61 -34 96t-91 35q-36 0 -70.5 -17t-61 -45.5t-42.5 -66.5t-16 -80q0 -29 9.5 -53.5t27 -42.5t42 -28t54.5 -10zM146 528h121l-19 -70q36 36 76.5 58.5t92.5 22.5q44 0 82 -15.5t65.5 -45t43 -71.5t15.5 -94
q0 -70 -24.5 -129.5t-65.5 -102.5t-94 -67.5t-110 -24.5q-70 0 -112 30.5t-66 74.5l-68 -254h-121z" />
    <glyph glyph-name="q" unicode="q" horiz-adv-x="668" 
d="M296 92q36 0 70.5 17t61 46t42.5 67t16 80q0 59 -37 96t-97 37q-37 0 -70 -16.5t-58 -45t-39.5 -67.5t-14.5 -83q0 -60 34.5 -95.5t91.5 -35.5zM419 71q-35 -37 -76 -59.5t-93 -22.5q-44 0 -81.5 15.5t-65.5 45t-43.5 71t-15.5 94.5q0 70 24.5 129.5t65.5 102.5t94 67.5
t110 24.5q70 0 112 -29.5t66 -74.5l25 93h121l-194 -728h-121z" />
    <glyph glyph-name="r" unicode="r" horiz-adv-x="412" 
d="M146 528h121l-31 -119q44 63 97 98.5t124 30.5l-34 -128h-7q-40 0 -76.5 -13t-67 -39.5t-54.5 -66.5t-39 -95l-53 -196h-121z" />
    <glyph glyph-name="s" unicode="s" horiz-adv-x="498" 
d="M217 -12q-60 0 -123.5 23.5t-109.5 71.5l72 74q42 -42 86 -58t84 -16q36 0 60.5 17t24.5 46q0 20 -18.5 34.5t-58.5 31.5q-33 13 -61 27t-48 31.5t-31.5 40t-11.5 52.5q0 37 14.5 69t41.5 55.5t65 37t86 13.5q63 0 116.5 -22.5t86.5 -51.5l-67 -78q-73 58 -145 58
q-39 0 -60 -17t-21 -43q0 -20 19.5 -35t64.5 -34q30 -13 56.5 -27t46 -31t31 -39t11.5 -51q0 -41 -16 -74t-44.5 -56.5t-67 -36t-83.5 -12.5z" />
    <glyph glyph-name="t" unicode="t" horiz-adv-x="409" 
d="M196 -9q-64 0 -98 28t-34 76q0 31 9 61l71 268h-67l28 104h67l39 145h121l-39 -145h141l-28 -104h-141l-68 -255q-2 -8 -3 -16t-1 -14q0 -41 53 -41q37 0 77 17l-28 -105q-42 -19 -99 -19z" />
    <glyph glyph-name="u" unicode="u" horiz-adv-x="618" 
d="M209 -11q-74 0 -117.5 42.5t-43.5 115.5q0 21 5 45.5t11 47.5l77 288h121l-79 -293q-3 -12 -5 -27t-2 -26q0 -40 23.5 -61.5t67.5 -21.5q51 0 90 36.5t55 95.5l80 297h121l-141 -528h-121l18 68q-32 -32 -70.5 -55.5t-89.5 -23.5z" />
    <glyph glyph-name="v" unicode="v" horiz-adv-x="581" 
d="M86 528h125l38 -386l243 386h132l-356 -532h-109z" />
    <glyph glyph-name="w" unicode="w" horiz-adv-x="853" 
d="M92 528h123l10 -361l214 363h103l20 -363l206 361h122l-316 -532h-109l-21 361l-216 -361h-107z" />
    <glyph glyph-name="x" unicode="x" horiz-adv-x="572" 
d="M225 275l-122 253h130l75 -169l156 169h146l-256 -265l125 -263h-130l-79 180l-167 -180h-147z" />
    <glyph glyph-name="y" unicode="y" horiz-adv-x="585" 
d="M65 -163q-38 0 -66 9.5t-53 26.5l64 89q14 -10 32.5 -16.5t35.5 -6.5q23 0 43.5 12t46.5 47l-77 530h124l44 -391l233 391h132l-341 -543q-53 -81 -103.5 -114.5t-114.5 -33.5z" />
    <glyph glyph-name="z" unicode="z" horiz-adv-x="554" 
d="M-1 83l388 346h-285l26 99h445l-22 -83l-389 -346h299l-27 -99h-458z" />
    <glyph glyph-name="braceleft" unicode="{" horiz-adv-x="487" 
d="M309 -141q-97 20 -137 59.5t-40 97.5q0 20 5 41.5t16 54.5q6 19 9.5 37t3.5 30q0 14 -3 25.5t-12 19.5t-26 12.5t-44 4.5h-31l25 92h30q37 0 62 7t42 25.5t27.5 50t18.5 80.5q8 54 26.5 94.5t51.5 67.5t82.5 41t118.5 16l6 -82q-50 -4 -82 -15.5t-52 -31.5t-30 -49
t-15 -68q-7 -52 -19.5 -86.5t-32 -56.5t-46 -33t-62.5 -15q40 -8 60.5 -30.5t20.5 -56.5q0 -18 -5 -36t-11 -35q-6 -20 -12 -42t-6 -42q0 -36 20.5 -59.5t79.5 -43.5z" />
    <glyph glyph-name="bar" unicode="|" horiz-adv-x="331" 
d="M135 798h97v-926h-97v926z" />
    <glyph glyph-name="braceright" unicode="}" horiz-adv-x="487" 
d="M-41 -59q50 4 82 15.5t51.5 31.5t29.5 49t16 68q7 52 19.5 86.5t32 56.5t46 32.5t62.5 15.5q-40 8 -60 30.5t-20 56.5q0 18 4.5 36t10.5 35q6 19 12 41.5t6 42.5q0 36 -20.5 59.5t-79.5 43.5l39 74q97 -20 137 -59.5t40 -97.5q0 -20 -4.5 -41.5t-15.5 -54.5
q-7 -19 -10.5 -37t-3.5 -30q0 -14 3 -25.5t12 -19.5t26 -12.5t45 -4.5h30l-25 -92h-30q-36 0 -61.5 -7t-43 -25.5t-28 -50t-17.5 -80.5q-8 -54 -27 -94.5t-52 -67.5t-82 -41t-118 -16z" />
    <glyph glyph-name="asciitilde" unicode="~" horiz-adv-x="495" 
d="M65 260q26 56 60 89t78 33q25 0 41.5 -8.5t33.5 -22.5q19 -15 29 -21t23 -6q21 0 36 16t30 43l68 -32q-26 -56 -60.5 -89t-77.5 -33q-26 0 -42 8.5t-34 22.5q-19 14 -29 20.5t-22 6.5q-21 0 -36.5 -16.5t-30.5 -42.5z" />
    <glyph glyph-name="Adieresis" unicode="&#xc4;" horiz-adv-x="763" 
d="M386 876h123l-32 -118h-123zM585 876h123l-33 -118h-122zM516 278l-45 283l-196 -283h241zM447 705h118l119 -705h-126l-27 169h-331l-117 -169h-133z" />
    <glyph glyph-name="Aring" unicode="&#xc5;" horiz-adv-x="763" 
d="M519 278l-45 283l-196 -283h241zM514 710q30 0 49 23.5t19 52.5q0 21 -13.5 35.5t-37.5 14.5q-31 0 -50 -23.5t-19 -52.5q0 -21 13.5 -35.5t38.5 -14.5zM438 689q-32 27 -32 71q0 25 10 47.5t27 39.5t40 27t49 10q49 0 77.5 -28t28.5 -69q0 -35 -18.5 -63.5t-47.5 -43.5
l115 -680h-126l-27 169h-331l-117 -169h-133z" />
    <glyph glyph-name="Ccedilla" unicode="&#xc7;" horiz-adv-x="730" 
d="M277 -165l-93 44l114 120q-49 12 -90 37.5t-70.5 62t-46 83.5t-16.5 104q0 84 33 161.5t90.5 136t134.5 93.5t165 35q100 0 167 -40.5t106 -109.5l-102 -69q-16 24 -34 43.5t-40 33.5t-49.5 21.5t-61.5 7.5q-56 0 -107 -25t-89.5 -67.5t-61.5 -98.5t-23 -117
q0 -43 14 -78t39.5 -60t60 -38.5t76.5 -13.5q60 0 102 22t84 58l81 -82q-50 -48 -114 -79.5t-155 -31.5h-7z" />
    <glyph glyph-name="Eacute" unicode="&#xc9;" horiz-adv-x="660" 
d="M543 922l108 -49l-153 -115h-105zM207 700h514l-30 -110h-391l-49 -183h347l-30 -109h-347l-50 -188h397l-30 -110h-519z" />
    <glyph glyph-name="Ntilde" unicode="&#xd1;" horiz-adv-x="786" 
d="M326 785q26 56 60 89t78 33q25 0 41.5 -8.5t33.5 -22.5q19 -15 29 -21t23 -6q21 0 36 16t30 43l68 -32q-26 -56 -60.5 -89t-78.5 -33q-25 0 -41.5 8.5t-33.5 22.5q-19 14 -29 20.5t-22 6.5q-21 0 -36.5 -16.5t-30.5 -42.5zM207 700h114l237 -495l134 495h121l-188 -700
h-103l-245 509l-136 -509h-122z" />
    <glyph glyph-name="Odieresis" unicode="&#xd6;" horiz-adv-x="836" 
d="M398 876h123l-32 -118h-123zM597 876h123l-33 -118h-122zM403 101q61 0 111.5 26.5t87 68.5t56.5 95t20 107q0 43 -13.5 80t-39 64t-62.5 42t-84 15q-61 0 -111.5 -26.5t-87 -68.5t-56.5 -95t-20 -107q0 -44 13.5 -80.5t39 -63.5t62.5 -42t84 -15zM390 -12
q-71 0 -128.5 23.5t-99 64.5t-64 97.5t-22.5 121.5q0 79 31 154.5t86 133.5t131 93.5t167 35.5q70 0 128.5 -23.5t99.5 -65t64 -97.5t23 -121q0 -80 -31 -155t-86 -133t-131.5 -93.5t-167.5 -35.5z" />
    <glyph glyph-name="Udieresis" unicode="&#xdc;" horiz-adv-x="762" 
d="M382 876h123l-32 -118h-123zM581 876h123l-33 -118h-122zM345 -11q-124 0 -191.5 62t-67.5 169q0 56 16 111l98 369h123l-103 -386q-5 -17 -7.5 -36t-2.5 -41q0 -60 37 -97.5t110 -37.5q78 0 131 53q25 25 44.5 61t32.5 86l107 398h123l-112 -417q-36 -134 -109 -207
q-43 -43 -99.5 -65t-129.5 -22z" />
    <glyph glyph-name="aacute" unicode="&#xe1;" horiz-adv-x="583" 
d="M439 759l108 -49l-153 -115h-105zM221 78q28 0 54 10t47.5 27.5t37 40t21.5 46.5l6 23q-25 8 -55 14t-65 6q-61 0 -95.5 -26.5t-34.5 -68.5q0 -35 22.5 -53.5t61.5 -18.5zM174 -11q-34 0 -63.5 10.5t-51 29t-34 45.5t-12.5 60q0 46 17.5 81.5t49 59.5t74.5 36.5t94 12.5
q44 0 83.5 -7t74.5 -19l3 11q3 12 4.5 21t1.5 21q0 35 -27 56.5t-88 21.5q-40 0 -76.5 -8t-68.5 -21l-20 100q41 17 88 26.5t101 9.5q105 0 158.5 -43t53.5 -121q0 -19 -3 -37t-8 -38l-79 -297h-119l18 69q-35 -37 -76 -58.5t-95 -21.5z" />
    <glyph glyph-name="agrave" unicode="&#xe0;" horiz-adv-x="583" 
d="M251 710l113 49l61 -164h-83zM221 78q28 0 54 10t47.5 27.5t37 40t21.5 46.5l6 23q-25 8 -55 14t-65 6q-61 0 -95.5 -26.5t-34.5 -68.5q0 -35 22.5 -53.5t61.5 -18.5zM174 -11q-34 0 -63.5 10.5t-51 29t-34 45.5t-12.5 60q0 46 17.5 81.5t49 59.5t74.5 36.5t94 12.5
q44 0 83.5 -7t74.5 -19l3 11q3 12 4.5 21t1.5 21q0 35 -27 56.5t-88 21.5q-40 0 -76.5 -8t-68.5 -21l-20 100q41 17 88 26.5t101 9.5q105 0 158.5 -43t53.5 -121q0 -19 -3 -37t-8 -38l-79 -297h-119l18 69q-35 -37 -76 -58.5t-95 -21.5z" />
    <glyph glyph-name="acircumflex" unicode="&#xe2;" horiz-adv-x="583" 
d="M354 741h113l77 -146h-91l-58 67l-96 -67h-100zM221 78q28 0 54 10t47.5 27.5t37 40t21.5 46.5l6 23q-25 8 -55 14t-65 6q-61 0 -95.5 -26.5t-34.5 -68.5q0 -35 22.5 -53.5t61.5 -18.5zM174 -11q-34 0 -63.5 10.5t-51 29t-34 45.5t-12.5 60q0 46 17.5 81.5t49 59.5
t74.5 36.5t94 12.5q44 0 83.5 -7t74.5 -19l3 11q3 12 4.5 21t1.5 21q0 35 -27 56.5t-88 21.5q-40 0 -76.5 -8t-68.5 -21l-20 100q41 17 88 26.5t101 9.5q105 0 158.5 -43t53.5 -121q0 -19 -3 -37t-8 -38l-79 -297h-119l18 69q-35 -37 -76 -58.5t-95 -21.5z" />
    <glyph glyph-name="adieresis" unicode="&#xe4;" horiz-adv-x="583" 
d="M243 713h123l-32 -118h-123zM442 713h123l-33 -118h-122zM221 78q28 0 54 10t47.5 27.5t37 40t21.5 46.5l6 23q-25 8 -55 14t-65 6q-61 0 -95.5 -26.5t-34.5 -68.5q0 -35 22.5 -53.5t61.5 -18.5zM174 -11q-34 0 -63.5 10.5t-51 29t-34 45.5t-12.5 60q0 46 17.5 81.5
t49 59.5t74.5 36.5t94 12.5q44 0 83.5 -7t74.5 -19l3 11q3 12 4.5 21t1.5 21q0 35 -27 56.5t-88 21.5q-40 0 -76.5 -8t-68.5 -21l-20 100q41 17 88 26.5t101 9.5q105 0 158.5 -43t53.5 -121q0 -19 -3 -37t-8 -38l-79 -297h-119l18 69q-35 -37 -76 -58.5t-95 -21.5z" />
    <glyph glyph-name="atilde" unicode="&#xe3;" horiz-adv-x="583" 
d="M183 622q26 56 60 89t78 33q25 0 41.5 -8.5t33.5 -22.5q19 -15 29 -21t23 -6q21 0 36 16t30 43l68 -32q-26 -56 -60.5 -89t-78.5 -33q-25 0 -41.5 8.5t-33.5 22.5q-19 14 -29 20.5t-22 6.5q-21 0 -36.5 -16.5t-30.5 -42.5zM221 78q28 0 54 10t47.5 27.5t37 40t21.5 46.5
l6 23q-25 8 -55 14t-65 6q-61 0 -95.5 -26.5t-34.5 -68.5q0 -35 22.5 -53.5t61.5 -18.5zM174 -11q-34 0 -63.5 10.5t-51 29t-34 45.5t-12.5 60q0 46 17.5 81.5t49 59.5t74.5 36.5t94 12.5q44 0 83.5 -7t74.5 -19l3 11q3 12 4.5 21t1.5 21q0 35 -27 56.5t-88 21.5
q-40 0 -76.5 -8t-68.5 -21l-20 100q41 17 88 26.5t101 9.5q105 0 158.5 -43t53.5 -121q0 -19 -3 -37t-8 -38l-79 -297h-119l18 69q-35 -37 -76 -58.5t-95 -21.5z" />
    <glyph glyph-name="aring" unicode="&#xe5;" horiz-adv-x="583" 
d="M390 642q30 0 49.5 23t19.5 52q0 22 -13.5 36t-38.5 14q-30 0 -49.5 -23t-19.5 -52q0 -22 13.5 -36t38.5 -14zM389 594q-49 0 -77.5 27.5t-28.5 69.5q0 25 10 47.5t27 39.5t39.5 27t48.5 10q49 0 77.5 -27.5t28.5 -69.5q0 -26 -10 -48.5t-27 -39t-39.5 -26.5t-48.5 -10z
M221 78q28 0 54 10t47.5 27.5t37 40t21.5 46.5l6 23q-25 8 -55 14t-65 6q-61 0 -95.5 -26.5t-34.5 -68.5q0 -35 22.5 -53.5t61.5 -18.5zM174 -11q-34 0 -63.5 10.5t-51 29t-34 45.5t-12.5 60q0 46 17.5 81.5t49 59.5t74.5 36.5t94 12.5q44 0 83.5 -7t74.5 -19l3 11
q3 12 4.5 21t1.5 21q0 35 -27 56.5t-88 21.5q-40 0 -76.5 -8t-68.5 -21l-20 100q41 17 88 26.5t101 9.5q105 0 158.5 -43t53.5 -121q0 -19 -3 -37t-8 -38l-79 -297h-119l18 69q-35 -37 -76 -58.5t-95 -21.5z" />
    <glyph glyph-name="ccedilla" unicode="&#xe7;" horiz-adv-x="561" 
d="M204 0q-71 23 -115.5 80.5t-44.5 142.5q0 65 25 122.5t68 100.5t99.5 68t119.5 25q42 0 76 -10t60 -26.5t45 -38t33 -45.5l-94 -64q-21 34 -50 56.5t-80 22.5q-36 0 -68.5 -17t-57.5 -46t-40 -67t-15 -80q0 -31 10 -55.5t27 -41.5t39.5 -26t48.5 -9q40 0 71.5 15.5
t63.5 43.5l64 -79q-41 -37 -87.5 -60t-112.5 -24h-1l-107 -153l-93 44z" />
    <glyph glyph-name="eacute" unicode="&#xe9;" horiz-adv-x="600" 
d="M443 759l108 -49l-153 -115h-105zM446 303q5 13 5 36q0 41 -25 71t-80 30q-62 0 -108 -38.5t-66 -98.5h274zM159 220q1 -60 35.5 -96.5t101.5 -36.5q38 0 69.5 12.5t65.5 38.5l58 -77q-38 -31 -87 -52t-118 -21q-55 0 -99.5 16t-75.5 46t-48 73t-17 96q0 58 22.5 115.5
t64 103t98.5 73.5t126 28q51 0 90 -16t66 -43.5t41 -65t14 -80.5q0 -28 -6 -56.5t-17 -57.5h-384z" />
    <glyph glyph-name="egrave" unicode="&#xe8;" horiz-adv-x="600" 
d="M257 710l113 49l61 -164h-83zM446 303q5 13 5 36q0 41 -25 71t-80 30q-62 0 -108 -38.5t-66 -98.5h274zM159 220q1 -60 35.5 -96.5t101.5 -36.5q38 0 69.5 12.5t65.5 38.5l58 -77q-38 -31 -87 -52t-118 -21q-55 0 -99.5 16t-75.5 46t-48 73t-17 96q0 58 22.5 115.5
t64 103t98.5 73.5t126 28q51 0 90 -16t66 -43.5t41 -65t14 -80.5q0 -28 -6 -56.5t-17 -57.5h-384z" />
    <glyph glyph-name="ecircumflex" unicode="&#xea;" horiz-adv-x="600" 
d="M357 741h113l77 -146h-91l-58 67l-96 -67h-100zM446 303q5 13 5 36q0 41 -25 71t-80 30q-62 0 -108 -38.5t-66 -98.5h274zM159 220q1 -60 35.5 -96.5t101.5 -36.5q38 0 69.5 12.5t65.5 38.5l58 -77q-38 -31 -87 -52t-118 -21q-55 0 -99.5 16t-75.5 46t-48 73t-17 96
q0 58 22.5 115.5t64 103t98.5 73.5t126 28q51 0 90 -16t66 -43.5t41 -65t14 -80.5q0 -28 -6 -56.5t-17 -57.5h-384z" />
    <glyph glyph-name="edieresis" unicode="&#xeb;" horiz-adv-x="600" 
d="M249 713h123l-32 -118h-123zM448 713h123l-33 -118h-122zM446 303q5 13 5 36q0 41 -25 71t-80 30q-62 0 -108 -38.5t-66 -98.5h274zM159 220q1 -60 35.5 -96.5t101.5 -36.5q38 0 69.5 12.5t65.5 38.5l58 -77q-38 -31 -87 -52t-118 -21q-55 0 -99.5 16t-75.5 46t-48 73
t-17 96q0 58 22.5 115.5t64 103t98.5 73.5t126 28q51 0 90 -16t66 -43.5t41 -65t14 -80.5q0 -28 -6 -56.5t-17 -57.5h-384z" />
    <glyph glyph-name="iacute" unicode="&#xed;" horiz-adv-x="286" 
d="M308 759l108 -49l-153 -115h-105zM154 528h121l-142 -528h-121z" />
    <glyph glyph-name="igrave" unicode="&#xec;" horiz-adv-x="286" 
d="M108 710l113 49l61 -164h-83zM154 528h121l-142 -528h-121z" />
    <glyph glyph-name="icircumflex" unicode="&#xee;" horiz-adv-x="286" 
d="M207 741h113l77 -146h-91l-58 67l-96 -67h-100zM154 528h121l-142 -528h-121z" />
    <glyph glyph-name="idieresis" unicode="&#xef;" horiz-adv-x="286" 
d="M100 713h123l-32 -118h-123zM299 713h123l-33 -118h-122zM154 528h121l-142 -528h-121z" />
    <glyph glyph-name="ntilde" unicode="&#xf1;" horiz-adv-x="617" 
d="M200 622q26 56 60 89t78 33q25 0 41.5 -8.5t33.5 -22.5q19 -15 29 -21t23 -6q21 0 36 16t30 43l68 -32q-26 -56 -60.5 -89t-78.5 -33q-25 0 -41.5 8.5t-33.5 22.5q-19 14 -29 20.5t-22 6.5q-21 0 -36.5 -16.5t-30.5 -42.5zM146 528h121l-18 -68q32 32 70.5 55.5
t89.5 23.5q74 0 117.5 -42.5t43.5 -115.5q0 -21 -5 -45.5t-11 -47.5l-76 -288h-121l78 293q4 13 6 27.5t2 25.5q0 40 -24 61.5t-68 21.5q-51 0 -90 -36.5t-55 -95.5l-80 -297h-121z" />
    <glyph glyph-name="oacute" unicode="&#xf3;" horiz-adv-x="646" 
d="M448 759l108 -49l-153 -115h-105zM300 93q38 0 71 18t57.5 46.5t38.5 64.5t14 72q0 67 -37.5 103.5t-97.5 36.5q-39 0 -72 -18t-57.5 -47t-38 -65t-13.5 -71q0 -67 37.5 -103.5t97.5 -36.5zM293 -12q-57 0 -102.5 18t-78 50.5t-50 76.5t-17.5 96q0 60 24 116t66 99t98 69
t120 26q57 0 102.5 -18t78 -50.5t50 -77t17.5 -96.5q0 -60 -24.5 -116t-66.5 -99t-98 -68.5t-119 -25.5z" />
    <glyph glyph-name="ograve" unicode="&#xf2;" horiz-adv-x="646" 
d="M268 710l113 49l61 -164h-83zM300 93q38 0 71 18t57.5 46.5t38.5 64.5t14 72q0 67 -37.5 103.5t-97.5 36.5q-39 0 -72 -18t-57.5 -47t-38 -65t-13.5 -71q0 -67 37.5 -103.5t97.5 -36.5zM293 -12q-57 0 -102.5 18t-78 50.5t-50 76.5t-17.5 96q0 60 24 116t66 99t98 69
t120 26q57 0 102.5 -18t78 -50.5t50 -77t17.5 -96.5q0 -60 -24.5 -116t-66.5 -99t-98 -68.5t-119 -25.5z" />
    <glyph glyph-name="ocircumflex" unicode="&#xf4;" horiz-adv-x="646" 
d="M370 741h113l77 -146h-91l-58 67l-96 -67h-100zM300 93q38 0 71 18t57.5 46.5t38.5 64.5t14 72q0 67 -37.5 103.5t-97.5 36.5q-39 0 -72 -18t-57.5 -47t-38 -65t-13.5 -71q0 -67 37.5 -103.5t97.5 -36.5zM293 -12q-57 0 -102.5 18t-78 50.5t-50 76.5t-17.5 96
q0 60 24 116t66 99t98 69t120 26q57 0 102.5 -18t78 -50.5t50 -77t17.5 -96.5q0 -60 -24.5 -116t-66.5 -99t-98 -68.5t-119 -25.5z" />
    <glyph glyph-name="odieresis" unicode="&#xf6;" horiz-adv-x="646" 
d="M257 713h123l-32 -118h-123zM456 713h123l-33 -118h-122zM300 93q38 0 71 18t57.5 46.5t38.5 64.5t14 72q0 67 -37.5 103.5t-97.5 36.5q-39 0 -72 -18t-57.5 -47t-38 -65t-13.5 -71q0 -67 37.5 -103.5t97.5 -36.5zM293 -12q-57 0 -102.5 18t-78 50.5t-50 76.5t-17.5 96
q0 60 24 116t66 99t98 69t120 26q57 0 102.5 -18t78 -50.5t50 -77t17.5 -96.5q0 -60 -24.5 -116t-66.5 -99t-98 -68.5t-119 -25.5z" />
    <glyph glyph-name="otilde" unicode="&#xf5;" horiz-adv-x="646" 
d="M196 622q26 56 60 89t78 33q25 0 41.5 -8.5t33.5 -22.5q19 -15 29 -21t23 -6q21 0 36 16t30 43l68 -32q-26 -56 -60.5 -89t-78.5 -33q-25 0 -41.5 8.5t-33.5 22.5q-19 14 -29 20.5t-22 6.5q-21 0 -36.5 -16.5t-30.5 -42.5zM300 93q38 0 71 18t57.5 46.5t38.5 64.5t14 72
q0 67 -37.5 103.5t-97.5 36.5q-39 0 -72 -18t-57.5 -47t-38 -65t-13.5 -71q0 -67 37.5 -103.5t97.5 -36.5zM293 -12q-57 0 -102.5 18t-78 50.5t-50 76.5t-17.5 96q0 60 24 116t66 99t98 69t120 26q57 0 102.5 -18t78 -50.5t50 -77t17.5 -96.5q0 -60 -24.5 -116t-66.5 -99
t-98 -68.5t-119 -25.5z" />
    <glyph glyph-name="uacute" unicode="&#xfa;" horiz-adv-x="618" 
d="M458 759l108 -49l-153 -115h-105zM209 -11q-74 0 -117.5 42.5t-43.5 115.5q0 21 5 45.5t11 47.5l77 288h121l-79 -293q-3 -12 -5 -27t-2 -26q0 -40 23.5 -61.5t67.5 -21.5q51 0 90 36.5t55 95.5l80 297h121l-141 -528h-121l18 68q-32 -32 -70.5 -55.5t-89.5 -23.5z" />
    <glyph glyph-name="ugrave" unicode="&#xf9;" horiz-adv-x="618" 
d="M278 710l113 49l61 -164h-83zM209 -11q-74 0 -117.5 42.5t-43.5 115.5q0 21 5 45.5t11 47.5l77 288h121l-79 -293q-3 -12 -5 -27t-2 -26q0 -40 23.5 -61.5t67.5 -21.5q51 0 90 36.5t55 95.5l80 297h121l-141 -528h-121l18 68q-32 -32 -70.5 -55.5t-89.5 -23.5z" />
    <glyph glyph-name="ucircumflex" unicode="&#xfb;" horiz-adv-x="618" 
d="M371 741h113l77 -146h-91l-58 67l-96 -67h-100zM209 -11q-74 0 -117.5 42.5t-43.5 115.5q0 21 5 45.5t11 47.5l77 288h121l-79 -293q-3 -12 -5 -27t-2 -26q0 -40 23.5 -61.5t67.5 -21.5q51 0 90 36.5t55 95.5l80 297h121l-141 -528h-121l18 68q-32 -32 -70.5 -55.5
t-89.5 -23.5z" />
    <glyph glyph-name="udieresis" unicode="&#xfc;" horiz-adv-x="618" 
d="M262 713h123l-32 -118h-123zM461 713h123l-33 -118h-122zM209 -11q-74 0 -117.5 42.5t-43.5 115.5q0 21 5 45.5t11 47.5l77 288h121l-79 -293q-3 -12 -5 -27t-2 -26q0 -40 23.5 -61.5t67.5 -21.5q51 0 90 36.5t55 95.5l80 297h121l-141 -528h-121l18 68
q-32 -32 -70.5 -55.5t-89.5 -23.5z" />
    <glyph glyph-name="dagger" unicode="&#x2020;" horiz-adv-x="411" 
d="M239 513l-124 -9l20 71l117 -9l26 134h79l-48 -134l124 9l-20 -71l-119 9l-65 -275h-72z" />
    <glyph glyph-name="degree" unicode="&#xb0;" horiz-adv-x="421" 
d="M242 445q22 0 41.5 10t33 26t21.5 36.5t8 41.5q0 37 -21.5 59.5t-56.5 22.5q-23 0 -42 -10t-32.5 -26.5t-21.5 -36.5t-8 -41q0 -38 21.5 -60t56.5 -22zM238 377q-34 0 -62 11t-47.5 30.5t-30 46t-10.5 58.5q0 36 14.5 69.5t39 59t58 41t71.5 15.5q34 0 62 -11t48 -30.5
t30.5 -46.5t10.5 -58q0 -36 -14.5 -69.5t-39.5 -59t-58.5 -41t-71.5 -15.5z" />
    <glyph glyph-name="cent" unicode="&#xa2;" horiz-adv-x="578" 
d="M371 525q-39 -2 -72.5 -19.5t-58 -45.5t-38 -64t-13.5 -75q0 -38 16 -67.5t42 -46.5zM203 104q-63 29 -98.5 84.5t-35.5 130.5q0 65 24 122t66.5 99t99.5 66t123 24h13.5t12.5 -1l30 77h88l-37 -94q44 -17 73 -44t46 -59l-92 -63q-14 22 -31 38.5t-40 27.5l-128 -328h8
q45 0 79 15t66 41l65 -81q-37 -34 -87.5 -57t-119.5 -23q-25 0 -46 3l-35 -88h-88z" />
    <glyph glyph-name="sterling" unicode="&#xa3;" horiz-adv-x="638" 
d="M11 78l86 24l47 176h-79l28 104h79l28 105q26 98 80 152q35 35 79 52.5t101 17.5q78 0 127.5 -33t77.5 -84l-99 -66q-20 32 -46 51t-69 19q-28 0 -47.5 -9t-36.5 -26t-29 -41t-20 -54l-24 -84h251l-27 -104h-251l-46 -171h327l-29 -107h-529z" />
    <glyph glyph-name="section" unicode="&#xa7;" horiz-adv-x="632" 
d="M397 275q37 0 63 17.5t26 43.5q0 23 -24 38t-76 32q-35 11 -58 16t-47 5q-37 0 -63 -17.5t-26 -43.5q0 -23 24 -38t76 -32q35 -11 58 -16t47 -5zM285 -9q-75 0 -135.5 24.5t-95.5 64.5l76 70q28 -27 70.5 -46.5t91.5 -19.5q38 0 62 13.5t24 36.5q0 21 -25.5 35.5
t-87.5 33.5q-41 12 -75.5 25t-59.5 29.5t-39 38t-14 51.5q0 52 40.5 86t113.5 44q-20 15 -34 36.5t-14 50.5q0 33 16 60t44.5 46.5t66.5 30t83 10.5q75 0 135.5 -24.5t95.5 -64.5l-76 -70q-28 27 -70.5 46.5t-91.5 19.5q-38 0 -62 -13.5t-24 -36.5q0 -21 25.5 -35.5
t87.5 -33.5q41 -12 75.5 -25t59.5 -29.5t39 -38t14 -51.5q0 -51 -40.5 -85.5t-113.5 -44.5q20 -15 34 -36.5t14 -50.5q0 -33 -16 -60t-44.5 -46.5t-66.5 -30t-83 -10.5z" />
    <glyph glyph-name="bullet" unicode="&#x2022;" horiz-adv-x="491" 
d="M242 207q-53 0 -83 30.5t-30 83.5q0 33 12 65t33.5 57t51 40.5t64.5 15.5q52 0 82 -31t30 -83q0 -33 -12 -65t-33 -57t-50.5 -40.5t-64.5 -15.5z" />
    <glyph glyph-name="paragraph" unicode="&#xb6;" horiz-adv-x="565" 
d="M341 227q-56 2 -102 15t-78.5 37.5t-50.5 62.5t-18 89q0 58 21.5 107.5t65 85.5t107.5 56t150 20h156l-188 -700h-123z" />
    <glyph glyph-name="germandbls" unicode="&#xdf;" horiz-adv-x="628" 
d="M251 94q53 -1 90 9t60 26.5t33.5 39t10.5 47.5q0 38 -31.5 64.5t-103.5 36.5l22 83q87 20 125.5 57.5t38.5 87.5q0 42 -27.5 65.5t-69.5 23.5q-52 0 -88 -37t-54 -105l-131 -492h-121l135 502q15 54 36 95t51 71q33 32 78 50.5t99 18.5q48 0 86.5 -14t65.5 -38t41.5 -57
t14.5 -72q0 -77 -48.5 -125.5t-123.5 -71.5q25 -9 47 -21.5t38.5 -30.5t26 -41t9.5 -53q0 -47 -20.5 -87t-62.5 -69t-105 -45t-148 -14z" />
    <glyph glyph-name="registered" unicode="&#xae;" horiz-adv-x="830" 
d="M457 365q35 0 55.5 16t20.5 44q0 29 -20.5 44.5t-55.5 15.5h-93v-120h93zM291 550h169q66 0 106 -32t40 -89q0 -47 -24.5 -75.5t-63.5 -39.5l103 -143h-86l-93 131h-78v-131h-73v379zM436 24q69 0 128.5 26t103 70t68.5 103.5t25 127.5q0 67 -24.5 126.5t-68 103.5
t-102.5 69.5t-128 25.5t-128.5 -26t-103 -70t-68 -104t-24.5 -127q0 -68 24.5 -127t67.5 -103t102 -69.5t128 -25.5zM436 -12q-76 0 -142 28.5t-114.5 77.5t-76.5 115t-28 140t28 140t77 115.5t115.5 78.5t142.5 29t142 -28.5t114.5 -77.5t76.5 -115t28 -140t-28 -140
t-77 -115.5t-115.5 -78.5t-142.5 -29z" />
    <glyph glyph-name="copyright" unicode="&#xa9;" horiz-adv-x="830" 
d="M441 159q-41 0 -76.5 15t-61 41.5t-40 62t-14.5 76.5q0 40 14.5 76t40.5 63t61.5 42.5t78.5 15.5q53 0 87 -16.5t61 -42.5l-47 -54q-22 20 -47 32.5t-55 12.5q-26 0 -47.5 -10t-37.5 -27.5t-24.5 -40.5t-8.5 -50q0 -26 9 -49.5t24.5 -41t37.5 -27.5t48 -10
q33 0 56.5 12.5t46.5 34.5l48 -47q-30 -32 -65 -50t-89 -18zM436 24q69 0 128.5 26t103 70t68.5 103.5t25 127.5q0 67 -24.5 126.5t-68 103.5t-102.5 69.5t-128 25.5t-128.5 -26t-103 -70t-68 -104t-24.5 -127q0 -68 24.5 -127t67.5 -103t102 -69.5t128 -25.5zM436 -12
q-76 0 -142 28.5t-114.5 77.5t-76.5 115t-28 140t28 140t77 115.5t115.5 78.5t142.5 29t142 -28.5t114.5 -77.5t76.5 -115t28 -140t-28 -140t-77 -115.5t-115.5 -78.5t-142.5 -29z" />
    <glyph glyph-name="trademark" unicode="&#x2122;" horiz-adv-x="697" 
d="M212 646h-94l15 54h248l-14 -54h-95l-70 -254h-59zM448 700h59l53 -146l132 146h66l-85 -308h-57l61 219l-135 -148h-6l-55 148l-61 -219h-57z" />
    <glyph glyph-name="acute" unicode="&#xb4;" 
d="M371 759l108 -49l-153 -115h-105z" />
    <glyph glyph-name="dieresis" unicode="&#xa8;" 
d="M206 713h123l-32 -118h-123zM405 713h123l-33 -118h-122z" />
    <glyph glyph-name="AE" unicode="&#xc6;" horiz-adv-x="1061" 
d="M507 278l84 315h-21l-259 -315h196zM527 700h590l-30 -110h-374l-49 -183h330l-30 -109h-330l-50 -188h380l-30 -110h-502l46 169h-256l-139 -169h-135z" />
    <glyph glyph-name="Oslash" unicode="&#xd8;" horiz-adv-x="836" 
d="M402 96q62 0 113.5 27t88.5 70t57.5 97t20.5 108q0 51 -18 92l-393 -349q51 -45 131 -45zM615 556q-53 47 -136 47q-62 0 -113 -27t-88 -70t-57.5 -97t-20.5 -108t19 -95zM390 -12q-65 0 -118.5 20t-93.5 55l-78 -68h-123l146 130q-47 74 -47 170q0 79 31 154.5t86 133.5
t131 93.5t167 35.5q66 0 120.5 -20.5t95.5 -57.5l80 71h123l-149 -134q22 -35 33.5 -77t11.5 -89q0 -80 -31 -155t-86 -133t-131.5 -93.5t-167.5 -35.5z" />
    <glyph glyph-name="plusminus" unicode="&#xb1;" horiz-adv-x="615" 
d="M257 -12q-52 0 -94 11t-74.5 29t-56 42t-39.5 50l93 68q31 -40 72.5 -64.5t107.5 -24.5q36 0 63.5 9t46.5 24.5t29 35.5t10 41q0 47 -37.5 70t-106.5 23h-62l28 103h68q37 0 69 7t54.5 21t35.5 34.5t13 46.5q0 40 -32.5 63.5t-80.5 23.5q-51 0 -89 -19t-76 -52l-69 78
q47 46 105 74.5t141 28.5q52 0 94 -13.5t72 -37.5t46 -56.5t16 -71.5q0 -69 -44.5 -115t-127.5 -67q21 -8 40.5 -20.5t34.5 -30.5t24 -41.5t9 -51.5q0 -46 -20.5 -86t-58 -69t-89.5 -46t-115 -17z" />
    <glyph glyph-name="yen" unicode="&#xa5;" horiz-adv-x="708" 
d="M249 102h-192l24 89h192l19 73h-192l24 89h157l-138 347h133l108 -294l266 294h149l-328 -347h157l-24 -89h-193l-19 -73h193l-24 -89h-193l-27 -102h-119z" />
    <glyph glyph-name="mu" unicode="&#xb5;" horiz-adv-x="836" 
d="M403 101q33 0 63 8.5t56 23.5l-99 124l101 69l84 -120q33 41 51.5 91t18.5 101q0 43 -13.5 80t-39 64t-62.5 42t-84 15q-61 0 -111.5 -26.5t-87 -68.5t-56.5 -95t-20 -107q0 -44 13.5 -80.5t39 -63.5t62.5 -42t84 -15zM586 39q-43 -24 -92 -37.5t-104 -13.5
q-71 0 -128.5 23.5t-99 64.5t-64 97.5t-22.5 121.5q0 79 31 154.5t86 133.5t131 93.5t167 35.5q70 0 128.5 -23.5t99.5 -65t64 -97.5t23 -121q0 -84 -33.5 -161.5t-93.5 -136.5l61 -77l-100 -68z" />
    <glyph glyph-name="mu" unicode="&#x3bc;" horiz-adv-x="836" 
d="M403 101q33 0 63 8.5t56 23.5l-99 124l101 69l84 -120q33 41 51.5 91t18.5 101q0 43 -13.5 80t-39 64t-62.5 42t-84 15q-61 0 -111.5 -26.5t-87 -68.5t-56.5 -95t-20 -107q0 -44 13.5 -80.5t39 -63.5t62.5 -42t84 -15zM586 39q-43 -24 -92 -37.5t-104 -13.5
q-71 0 -128.5 23.5t-99 64.5t-64 97.5t-22.5 121.5q0 79 31 154.5t86 133.5t131 93.5t167 35.5q70 0 128.5 -23.5t99.5 -65t64 -97.5t23 -121q0 -84 -33.5 -161.5t-93.5 -136.5l61 -77l-100 -68z" />
    <glyph glyph-name="pi" unicode="&#x3c0;" horiz-adv-x="830" 
d="M455 352q37 0 57.5 18t20.5 47q0 32 -21 48t-57 16h-73v-129h73zM308 547h153q68 0 107.5 -34.5t39.5 -94.5q0 -33 -12.5 -57.5t-33.5 -41t-49 -24.5t-59 -8h-72v-120h-74v380zM436 24q69 0 128.5 26t103 70t68.5 103.5t25 127.5q0 67 -24.5 126.5t-68 103.5t-102.5 69.5
t-128 25.5t-128.5 -26t-103 -70t-68 -104t-24.5 -127q0 -68 24.5 -127t67.5 -103t102 -69.5t128 -25.5zM436 -12q-76 0 -142 28.5t-114.5 77.5t-76.5 115t-28 140t28 140t77 115.5t115.5 78.5t142.5 29t142 -28.5t114.5 -77.5t76.5 -115t28 -140t-28 -140t-77 -115.5
t-115.5 -78.5t-142.5 -29z" />
    <glyph glyph-name="ordfeminine" unicode="&#xaa;" horiz-adv-x="390" 
d="M217 452q15 0 29 5.5t26 15t21 22.5t13 27l2 10q-13 4 -29.5 7.5t-35.5 3.5q-31 0 -50 -15t-19 -39q0 -16 11.5 -26.5t31.5 -10.5zM69 340h259l-16 -58h-259zM189 403q-38 0 -62 21.5t-24 56.5q0 51 37 79t91 28q25 0 47 -4.5t41 -10.5l2 7q2 5 3 10.5t1 9.5
q0 20 -15 31.5t-49 11.5q-21 0 -41 -4t-37 -11l-12 56q23 9 48.5 14.5t56.5 5.5q58 0 87.5 -23.5t29.5 -66.5q0 -11 -2 -21.5t-4 -21.5l-44 -162h-69l11 39q-20 -20 -43.5 -32.5t-52.5 -12.5z" />
    <glyph glyph-name="ordmasculine" unicode="&#xba;" horiz-adv-x="398" 
d="M249 462q21 0 38.5 9t30.5 24t20 34t7 39q0 35 -20 55.5t-52 20.5q-21 0 -38.5 -9.5t-30.5 -24.5t-20 -34t-7 -38q0 -34 20 -55t52 -21zM69 340h275l-15 -58h-275zM246 401q-64 0 -101.5 38t-37.5 96q0 33 13 64t36 54.5t54 37.5t66 14q31 0 57 -10t44 -28t28 -42.5
t10 -53.5q0 -33 -13 -64t-36 -54.5t-54 -37.5t-66 -14z" />
    <glyph glyph-name="Omega" unicode="&#x3a9;" horiz-adv-x="793" 
d="M147 424h-67l28 104h67l10 43q23 85 73.5 124.5t127.5 39.5q32 0 58 -5t46 -13l-27 -101q-38 16 -74 16q-67 0 -87 -74l-8 -30h146l-28 -104h-144l-114 -424h-121zM543 424h-67l28 104h67l11 43q21 85 72 124.5t128 39.5q32 0 58 -5t46 -13l-27 -101q-38 16 -74 16
q-66 0 -87 -74l-8 -30h146l-28 -104h-144l-114 -424h-121z" />
    <glyph glyph-name="Omega" unicode="&#x2126;" horiz-adv-x="793" 
d="M147 424h-67l28 104h67l10 43q23 85 73.5 124.5t127.5 39.5q32 0 58 -5t46 -13l-27 -101q-38 16 -74 16q-67 0 -87 -74l-8 -30h146l-28 -104h-144l-114 -424h-121zM543 424h-67l28 104h67l11 43q21 85 72 124.5t128 39.5q32 0 58 -5t46 -13l-27 -101q-38 16 -74 16
q-66 0 -87 -74l-8 -30h146l-28 -104h-144l-114 -424h-121z" />
    <glyph glyph-name="ae" unicode="&#xe6;" horiz-adv-x="948" 
d="M400 221q-68 24 -133 24q-61 0 -95.5 -26.5t-34.5 -68.5q0 -35 24 -53.5t69 -18.5q21 0 44.5 6.5t46.5 18.5t45 27.5t39 33.5q-2 14 -3.5 28t-1.5 29zM795 302q2 7 3 16.5t1 20.5q0 21 -6 39t-19 32t-32.5 22t-47.5 8q-30 0 -57.5 -10.5t-50 -28.5t-39.5 -43.5t-27 -55.5
h275zM431 92q-49 -45 -105 -74t-128 -29q-86 0 -135.5 41t-49.5 111q0 44 17.5 78t49 57.5t74.5 35.5t94 12q43 0 83 -7t75 -19l3 11q3 12 4.5 21t1.5 21q0 35 -27 56.5t-88 21.5q-40 0 -76.5 -8t-68.5 -21l-20 100q41 17 88 26.5t101 9.5q76 0 120.5 -23.5t62.5 -66.5
q38 42 89 67.5t111 25.5q49 0 88 -16t65 -43.5t40 -65t14 -80.5q0 -57 -23 -112h-384q0 -60 34.5 -97.5t102.5 -37.5q38 0 69.5 12.5t66.5 38.5l57 -77q-35 -31 -87 -52t-117 -21q-69 0 -121 26.5t-81 77.5z" />
    <glyph glyph-name="oslash" unicode="&#xf8;" horiz-adv-x="646" 
d="M297 89q40 0 74.5 18.5t60 47.5t39.5 66t14 73q0 33 -9 57l-267 -234q34 -28 88 -28zM434 412q-35 26 -85 26q-41 0 -75.5 -18.5t-59.5 -48t-39 -66t-14 -72.5q0 -28 8 -52zM293 -12q-52 0 -94.5 15.5t-74.5 42.5l-58 -51h-114l124 109q-31 56 -31 125q0 60 24 116t66 99
t98 69t120 26q51 0 92.5 -15t72.5 -41l58 51h113l-121 -107q33 -56 33 -130q0 -60 -24.5 -116t-66.5 -99t-98 -68.5t-119 -25.5z" />
    <glyph glyph-name="questiondown" unicode="&#xbf;" horiz-adv-x="541" 
d="M249 -9q-51 0 -91.5 14.5t-68 39t-42.5 57.5t-15 69q0 91 69.5 147t189.5 74l33 87h81l-23 -162l-6 -5q-101 -8 -158 -40t-57 -87q0 -39 27 -60.5t76 -21.5q44 0 85.5 19t73.5 49l66 -81q-46 -47 -108.5 -73t-131.5 -26zM355 700h133l-37 -137h-133z" />
    <glyph glyph-name="exclamdown" unicode="&#xa1;" horiz-adv-x="303" 
d="M19 35l156 444h67l-81 -444l-10 -35h-142zM202 700h133l-37 -137h-133z" />
    <glyph glyph-name="radical" unicode="&#x221a;" horiz-adv-x="1079" 
d="M1000 730h121l-196 -730h-121zM147 424h-67l28 104h67l10 43q23 85 73.5 124.5t127.5 39.5q32 0 58 -5t46 -13l-27 -101q-38 16 -74 16q-67 0 -87 -74l-8 -30h146l-28 -104h-144l-114 -424h-121zM543 424h-67l28 104h67l11 43q21 85 72 124.5t128 39.5q32 0 58 -5t46 -13
l-27 -101q-38 16 -74 16q-66 0 -87 -74l-8 -30h146l-28 -104h-144l-114 -424h-121z" />
    <glyph glyph-name="florin" unicode="&#x192;" horiz-adv-x="538" 
d="M53 -9q-27 0 -46 2.5t-34 5.5l27 99q11 -3 21.5 -5t25.5 -2q24 0 46 17.5t40 58.5l83 189h-82l27 101h100l45 100q65 152 196 152q38 0 64 -5t46 -13l-28 -100q-16 8 -33.5 12t-41.5 4q-34 0 -57.5 -21t-42.5 -63l-29 -66h132l-27 -101h-150l-99 -225q-35 -78 -81 -109
t-102 -31z" />
    <glyph glyph-name="approxequal" unicode="&#x2248;" horiz-adv-x="1079" 
d="M946 528h121l-142 -528h-121zM147 424h-67l28 104h67l10 43q23 85 73.5 124.5t127.5 39.5q32 0 58 -5t46 -13l-27 -101q-38 16 -74 16q-67 0 -87 -74l-8 -30h146l-28 -104h-144l-114 -424h-121zM543 424h-67l28 104h67l11 43q21 85 72 124.5t128 39.5q32 0 58 -5t46 -13
l-27 -101q-38 16 -74 16q-66 0 -87 -74l-8 -30h146l-28 -104h-144l-114 -424h-121zM995 724h130l-31 -115h-130z" />
    <glyph glyph-name="guillemotleft" unicode="&#xab;" horiz-adv-x="605" 
d="M46 254l2 8l230 226l72 -65l-181 -177l81 -167l-98 -45zM296 254l2 8l231 226l71 -65l-181 -177l81 -167l-97 -45z" />
    <glyph glyph-name="guillemotright" unicode="&#xbb;" horiz-adv-x="605" 
d="M3 98l180 178l-80 167l97 44l107 -219l-2 -8l-231 -226zM253 98l181 178l-81 167l97 44l107 -219l-2 -8l-231 -226z" />
    <glyph glyph-name="ellipsis" unicode="&#x2026;" horiz-adv-x="815" 
d="M45 135h131l-37 -135h-130zM308 135h131l-36 -135h-131zM572 135h130l-36 -135h-131z" />
    <glyph glyph-name="nonbreakingspace" unicode="&#xa0;" horiz-adv-x="300" 
 />
    <glyph glyph-name="Agrave" unicode="&#xc0;" horiz-adv-x="763" 
d="M388 873l113 49l61 -164h-83zM516 278l-45 283l-196 -283h241zM447 705h118l119 -705h-126l-27 169h-331l-117 -169h-133z" />
    <glyph glyph-name="Atilde" unicode="&#xc3;" horiz-adv-x="763" 
d="M320 785q26 56 60 89t78 33q25 0 41.5 -8.5t33.5 -22.5q19 -15 29 -21t23 -6q21 0 36 16t30 43l68 -32q-26 -56 -60.5 -89t-78.5 -33q-25 0 -41.5 8.5t-33.5 22.5q-19 14 -29 20.5t-22 6.5q-21 0 -36.5 -16.5t-30.5 -42.5zM516 278l-45 283l-196 -283h241zM447 705h118
l119 -705h-126l-27 169h-331l-117 -169h-133z" />
    <glyph glyph-name="Otilde" unicode="&#xd5;" horiz-adv-x="836" 
d="M338 785q26 56 60 89t78 33q25 0 41.5 -8.5t33.5 -22.5q19 -15 29 -21t23 -6q21 0 36 16t30 43l68 -32q-26 -56 -60.5 -89t-78.5 -33q-25 0 -41.5 8.5t-33.5 22.5q-19 14 -29 20.5t-22 6.5q-21 0 -36.5 -16.5t-30.5 -42.5zM403 101q61 0 111.5 26.5t87 68.5t56.5 95
t20 107q0 43 -13.5 80t-39 64t-62.5 42t-84 15q-61 0 -111.5 -26.5t-87 -68.5t-56.5 -95t-20 -107q0 -44 13.5 -80.5t39 -63.5t62.5 -42t84 -15zM390 -12q-71 0 -128.5 23.5t-99 64.5t-64 97.5t-22.5 121.5q0 79 31 154.5t86 133.5t131 93.5t167 35.5q70 0 128.5 -23.5
t99.5 -65t64 -97.5t23 -121q0 -80 -31 -155t-86 -133t-131.5 -93.5t-167.5 -35.5z" />
    <glyph glyph-name="OE" unicode="&#x152;" horiz-adv-x="1096" 
d="M497 112l128 476h-88q-78 0 -144 -24t-113 -71q-38 -38 -57.5 -87t-19.5 -106q0 -81 48 -129q28 -28 73 -43.5t110 -15.5h63zM424 0q-97 0 -164 24.5t-113 70.5q-35 35 -53.5 85t-18.5 115q0 79 28.5 149t84.5 125q63 63 154 97t209 34h601l-30 -110h-374l-49 -183h330
l-30 -109h-329l-51 -188h380l-30 -110h-545z" />
    <glyph glyph-name="oe" unicode="&#x153;" horiz-adv-x="1033" 
d="M299 93q39 0 72.5 17t57.5 45t38 64t14 73q0 66 -37 104t-97 38q-39 0 -72.5 -17.5t-58 -46t-38 -64.5t-13.5 -73q0 -64 37 -102t97 -38zM880 302q5 15 5 37q0 41 -25 71t-80 30q-30 0 -57.5 -10.5t-50 -28.5t-39.5 -43.5t-27 -55.5h274zM593 222q0 -60 34.5 -97.5
t102.5 -37.5q38 0 69.5 12.5t66.5 38.5l57 -77q-35 -31 -87 -52t-117 -21q-75 0 -127 30.5t-76 84.5q-38 -50 -94 -82.5t-129 -32.5q-56 0 -102 18t-78.5 50.5t-50 76.5t-17.5 96q0 61 24 117t65.5 99t97.5 68.5t120 25.5q80 0 132.5 -34.5t75.5 -88.5q37 52 94 87.5
t135 35.5q51 0 90.5 -16t66 -43.5t40.5 -65t14 -80.5q0 -57 -23 -112h-384z" />
    <glyph glyph-name="endash" unicode="&#x2013;" horiz-adv-x="530" 
d="M84 364h416l-31 -115h-416z" />
    <glyph glyph-name="emdash" unicode="&#x2014;" horiz-adv-x="900" 
d="M84 364h786l-31 -115h-786z" />
    <glyph glyph-name="quotedblleft" unicode="&#x201c;" horiz-adv-x="524" 
d="M141 539q23 85 69 122.5t124 43.5l9 -52q-54 -8 -81 -31.5t-34 -61.5h52l-37 -138h-133zM373 539q23 85 69 122.5t124 43.5l9 -52q-54 -8 -81 -31.5t-34 -61.5h52l-37 -138h-134z" />
    <glyph glyph-name="quotedblright" unicode="&#x201d;" horiz-adv-x="524" 
d="M91 469q54 8 80.5 31.5t34.5 62.5h-52l37 137h133l-31 -117q-23 -85 -69 -122.5t-124 -43.5zM322 469q54 8 81 31.5t34 62.5h-51l37 137h133l-31 -117q-23 -85 -69.5 -122.5t-124.5 -43.5z" />
    <glyph glyph-name="quoteleft" unicode="&#x2018;" horiz-adv-x="293" 
d="M140 539q23 86 69.5 123.5t124.5 42.5l9 -51q-54 -8 -81 -31.5t-34 -62.5h51l-37 -137h-133z" />
    <glyph glyph-name="quoteright" unicode="&#x2019;" horiz-adv-x="293" 
d="M93 469q54 8 81 31.5t34 62.5h-51l37 137h133l-31 -117q-23 -85 -69.5 -122.5t-124.5 -43.5z" />
    <glyph glyph-name="ydieresis" unicode="&#xff;" horiz-adv-x="585" 
d="M237 713h123l-32 -118h-123zM436 713h123l-33 -118h-122zM65 -163q-38 0 -66 9.5t-53 26.5l64 89q14 -10 32.5 -16.5t35.5 -6.5q23 0 43.5 12t46.5 47l-77 530h124l44 -391l233 391h132l-341 -543q-53 -81 -103.5 -114.5t-114.5 -33.5z" />
    <glyph glyph-name="Ydieresis" unicode="&#x178;" horiz-adv-x="655" 
d="M315 876h123l-32 -118h-123zM514 876h123l-33 -118h-122zM263 278l-156 422h136l106 -316l277 316h152l-395 -435l-71 -265h-123z" />
    <glyph glyph-name="fraction" unicode="&#x2044;" horiz-adv-x="529" 
d="M574 758h112l-696 -856h-111z" />
    <glyph glyph-name="fraction" unicode="&#x2215;" horiz-adv-x="529" 
d="M574 758h112l-696 -856h-111z" />
    <glyph glyph-name="currency" unicode="&#xa4;" horiz-adv-x="709" 
d="M389 -12q-55 0 -101 16.5t-80.5 47t-55.5 74.5t-26 99h-98l23 85h76q5 47 16 85h-70l23 85h73q21 50 53.5 92.5t73.5 73.5t91.5 48.5t107.5 17.5q51 0 90.5 -12t69 -33t50 -51t33.5 -66l-105 -51q-11 24 -24 43t-30.5 32t-39.5 20t-52 7q-60 0 -106 -32.5t-75 -88.5h225
l-23 -85h-234q-8 -20 -12.5 -41.5t-6.5 -43.5h231l-23 -85h-209q8 -60 44.5 -93t92.5 -33q51 0 87 20t72 59l83 -72q-45 -53 -104 -85.5t-140 -32.5z" />
    <glyph glyph-name="guilsinglleft" unicode="&#x2039;" horiz-adv-x="354" 
d="M46 254l2 8l230 226l72 -65l-181 -177l81 -167l-98 -45z" />
    <glyph glyph-name="guilsinglright" unicode="&#x203a;" horiz-adv-x="354" 
d="M3 98l180 178l-80 167l97 44l107 -219l-2 -8l-231 -226z" />
    <glyph glyph-name="daggerdbl" unicode="&#x2021;" horiz-adv-x="417" 
d="M140 134l-123 -9l19 71l118 -9l36 163l51 163l-123 -9l20 71l118 -9l25 134h79l-48 -134l124 9l-20 -71l-118 9l-36 -163l-52 -163l124 9l-19 -71l-118 9l-25 -134h-79z" />
    <glyph glyph-name="periodcentered" unicode="&#xb7;" horiz-adv-x="293" 
d="M106 375h134l-37 -137h-134z" />
    <glyph glyph-name="periodcentered" unicode="&#x2219;" horiz-adv-x="293" 
d="M106 375h134l-37 -137h-134z" />
    <glyph glyph-name="quotesinglbase" unicode="&#x201a;" horiz-adv-x="293" 
d="M-54 -94q54 8 80.5 32t34.5 62h-52l37 137h133l-31 -116q-11 -43 -28 -73t-41 -49.5t-54.5 -30t-69.5 -13.5z" />
    <glyph glyph-name="quotedblbase" unicode="&#x201e;" horiz-adv-x="525" 
d="M-54 -94q54 8 80.5 32t34.5 62h-52l37 137h133l-31 -116q-11 -43 -28 -73t-41 -49.5t-54.5 -30t-69.5 -13.5zM178 -94q54 8 81 32t34 62h-52l37 137h133l-31 -116q-11 -43 -28 -73t-41 -49.5t-54.5 -30t-69.5 -13.5z" />
    <glyph glyph-name="perthousand" unicode="&#x2030;" horiz-adv-x="1262" 
d="M633 66q23 0 42.5 12t33.5 31.5t21.5 43t7.5 46.5q0 38 -19 60t-52 22q-23 0 -42.5 -12t-33.5 -31.5t-21.5 -43.5t-7.5 -47q0 -37 19 -59t52 -22zM1033 66q23 0 42.5 12t33.5 31.5t21.5 43t7.5 46.5q0 38 -19 60t-52 22q-23 0 -42.5 -12t-33.5 -31.5t-21.5 -43.5
t-7.5 -47q0 -37 19 -59t52 -22zM241 420q23 0 42.5 12t33 31t21 43t7.5 47q0 38 -18.5 59.5t-52.5 21.5q-23 0 -42 -12t-33 -31t-21.5 -43t-7.5 -47q0 -38 19 -59.5t52 -21.5zM628 -8q-34 0 -61.5 11.5t-47 31.5t-30 47.5t-10.5 60.5q0 40 14.5 78t40 67.5t61 47.5t77.5 18
q33 0 60.5 -11t47 -31t30.5 -47.5t11 -60.5q0 -40 -14.5 -78t-40 -68t-61 -48t-77.5 -18zM1028 -8q-33 0 -60.5 11.5t-47 31.5t-30.5 47.5t-11 60.5q0 40 14.5 78t40 67.5t61 47.5t77.5 18q34 0 61.5 -11t47 -31t30 -47.5t10.5 -60.5q0 -40 -14.5 -78t-40 -68t-61 -48
t-77.5 -18zM737 700h109l-676 -700h-108zM236 346q-34 0 -61.5 11t-47 31.5t-30 48t-10.5 60.5q0 39 14.5 77t40 68t61 48t77.5 18q33 0 60.5 -11t47 -31.5t30.5 -48t11 -60.5q0 -39 -14.5 -77t-40 -68t-61 -48t-77.5 -18z" />
    <glyph glyph-name="Acircumflex" unicode="&#xc2;" horiz-adv-x="763" 
d="M484 904h113l77 -146h-91l-58 67l-96 -67h-100zM516 278l-45 283l-196 -283h241zM447 705h118l119 -705h-126l-27 169h-331l-117 -169h-133z" />
    <glyph glyph-name="Ecircumflex" unicode="&#xca;" horiz-adv-x="660" 
d="M457 904h113l77 -146h-91l-58 67l-96 -67h-100zM207 700h514l-30 -110h-391l-49 -183h347l-30 -109h-347l-50 -188h397l-30 -110h-519z" />
    <glyph glyph-name="Aacute" unicode="&#xc1;" horiz-adv-x="763" 
d="M595 922l108 -49l-153 -115h-105zM516 278l-45 283l-196 -283h241zM447 705h118l119 -705h-126l-27 169h-331l-117 -169h-133z" />
    <glyph glyph-name="Edieresis" unicode="&#xcb;" horiz-adv-x="660" 
d="M347 876h123l-32 -118h-123zM546 876h123l-33 -118h-122zM207 700h514l-30 -110h-391l-49 -183h347l-30 -109h-347l-50 -188h397l-30 -110h-519z" />
    <glyph glyph-name="Egrave" unicode="&#xc8;" horiz-adv-x="660" 
d="M353 873l113 49l61 -164h-83zM207 700h514l-30 -110h-391l-49 -183h347l-30 -109h-347l-50 -188h397l-30 -110h-519z" />
    <glyph glyph-name="Iacute" unicode="&#xcd;" horiz-adv-x="317" 
d="M367 922l108 -49l-153 -115h-105zM214 700h124l-188 -700h-124z" />
    <glyph glyph-name="Icircumflex" unicode="&#xce;" horiz-adv-x="317" 
d="M264 904h113l77 -146h-91l-58 67l-96 -67h-100zM214 700h124l-188 -700h-124z" />
    <glyph glyph-name="Idieresis" unicode="&#xcf;" horiz-adv-x="317" 
d="M162 876h123l-32 -118h-123zM361 876h123l-33 -118h-122zM214 700h124l-188 -700h-124z" />
    <glyph glyph-name="Igrave" unicode="&#xcc;" horiz-adv-x="317" 
d="M168 873l113 49l61 -164h-83zM214 700h124l-188 -700h-124z" />
    <glyph glyph-name="Oacute" unicode="&#xd3;" horiz-adv-x="836" 
d="M581 922l108 -49l-153 -115h-105zM403 101q61 0 111.5 26.5t87 68.5t56.5 95t20 107q0 43 -13.5 80t-39 64t-62.5 42t-84 15q-61 0 -111.5 -26.5t-87 -68.5t-56.5 -95t-20 -107q0 -44 13.5 -80.5t39 -63.5t62.5 -42t84 -15zM390 -12q-71 0 -128.5 23.5t-99 64.5t-64 97.5
t-22.5 121.5q0 79 31 154.5t86 133.5t131 93.5t167 35.5q70 0 128.5 -23.5t99.5 -65t64 -97.5t23 -121q0 -80 -31 -155t-86 -133t-131.5 -93.5t-167.5 -35.5z" />
    <glyph glyph-name="Ocircumflex" unicode="&#xd4;" horiz-adv-x="836" 
d="M505 904h113l77 -146h-91l-58 67l-96 -67h-100zM403 101q61 0 111.5 26.5t87 68.5t56.5 95t20 107q0 43 -13.5 80t-39 64t-62.5 42t-84 15q-61 0 -111.5 -26.5t-87 -68.5t-56.5 -95t-20 -107q0 -44 13.5 -80.5t39 -63.5t62.5 -42t84 -15zM390 -12q-71 0 -128.5 23.5
t-99 64.5t-64 97.5t-22.5 121.5q0 79 31 154.5t86 133.5t131 93.5t167 35.5q70 0 128.5 -23.5t99.5 -65t64 -97.5t23 -121q0 -80 -31 -155t-86 -133t-131.5 -93.5t-167.5 -35.5z" />
    <glyph glyph-name="Ograve" unicode="&#xd2;" horiz-adv-x="836" 
d="M404 873l113 49l61 -164h-83zM403 101q61 0 111.5 26.5t87 68.5t56.5 95t20 107q0 43 -13.5 80t-39 64t-62.5 42t-84 15q-61 0 -111.5 -26.5t-87 -68.5t-56.5 -95t-20 -107q0 -44 13.5 -80.5t39 -63.5t62.5 -42t84 -15zM390 -12q-71 0 -128.5 23.5t-99 64.5t-64 97.5
t-22.5 121.5q0 79 31 154.5t86 133.5t131 93.5t167 35.5q70 0 128.5 -23.5t99.5 -65t64 -97.5t23 -121q0 -80 -31 -155t-86 -133t-131.5 -93.5t-167.5 -35.5z" />
    <glyph glyph-name="Uacute" unicode="&#xda;" horiz-adv-x="762" 
d="M574 922l108 -49l-153 -115h-105zM345 -11q-124 0 -191.5 62t-67.5 169q0 56 16 111l98 369h123l-103 -386q-5 -17 -7.5 -36t-2.5 -41q0 -60 37 -97.5t110 -37.5q78 0 131 53q25 25 44.5 61t32.5 86l107 398h123l-112 -417q-36 -134 -109 -207q-43 -43 -99.5 -65
t-129.5 -22z" />
    <glyph glyph-name="Ucircumflex" unicode="&#xdb;" horiz-adv-x="762" 
d="M484 904h113l77 -146h-91l-58 67l-96 -67h-100zM345 -11q-124 0 -191.5 62t-67.5 169q0 56 16 111l98 369h123l-103 -386q-5 -17 -7.5 -36t-2.5 -41q0 -60 37 -97.5t110 -37.5q78 0 131 53q25 25 44.5 61t32.5 86l107 398h123l-112 -417q-36 -134 -109 -207
q-43 -43 -99.5 -65t-129.5 -22z" />
    <glyph glyph-name="Ugrave" unicode="&#xd9;" horiz-adv-x="762" 
d="M385 873l113 49l61 -164h-83zM345 -11q-124 0 -191.5 62t-67.5 169q0 56 16 111l98 369h123l-103 -386q-5 -17 -7.5 -36t-2.5 -41q0 -60 37 -97.5t110 -37.5q78 0 131 53q25 25 44.5 61t32.5 86l107 398h123l-112 -417q-36 -134 -109 -207q-43 -43 -99.5 -65t-129.5 -22z
" />
    <glyph glyph-name="dotlessi" unicode="&#x131;" horiz-adv-x="286" 
d="M154 528h121l-142 -528h-121z" />
    <glyph glyph-name="circumflex" unicode="&#x2c6;" 
d="M322 741h113l77 -146h-91l-58 67l-96 -67h-100z" />
    <glyph glyph-name="tilde" unicode="&#x2dc;" 
d="M157 622q26 56 60 89t78 33q25 0 41.5 -8.5t33.5 -22.5q19 -15 29 -21t23 -6q21 0 36 16t30 43l68 -32q-26 -56 -60.5 -89t-78.5 -33q-25 0 -41.5 8.5t-33.5 22.5q-19 14 -29 20.5t-22 6.5q-21 0 -36.5 -16.5t-30.5 -42.5z" />
    <glyph glyph-name="macron" unicode="&#xaf;" 
d="M192 689h342l-24 -89h-342z" />
    <glyph glyph-name="macron" unicode="&#x2c9;" 
d="M192 689h342l-24 -89h-342z" />
    <glyph glyph-name="breve" unicode="&#x2d8;" 
d="M353 593q-38 0 -66 11t-47 29.5t-28 43t-9 51.5q0 8 1 13h85q1 -26 19 -44.5t56 -18.5q31 0 56 18.5t42 44.5h87q-22 -69 -76 -108.5t-120 -39.5z" />
    <glyph glyph-name="dotaccent" unicode="&#x2d9;" 
d="M310 714h124l-32 -120h-125z" />
    <glyph glyph-name="ring" unicode="&#x2da;" 
d="M359 642q30 0 49.5 23t19.5 52q0 22 -13.5 36t-38.5 14q-30 0 -49.5 -23t-19.5 -52q0 -22 13.5 -36t38.5 -14zM358 594q-49 0 -77.5 27.5t-28.5 69.5q0 25 10 47.5t27 39.5t39.5 27t48.5 10q49 0 77.5 -27.5t28.5 -69.5q0 -26 -10 -48.5t-27 -39t-39.5 -26.5t-48.5 -10z
" />
    <glyph glyph-name="cedilla" unicode="&#xb8;" 
d="M52 -121l124 131h91l-122 -175z" />
    <glyph glyph-name="hungarumlaut" unicode="&#x2dd;" 
d="M293 759l93 -49l-152 -115h-90zM476 759l93 -49l-153 -115h-90z" />
    <glyph glyph-name="ogonek" unicode="&#x2db;" 
d="M230 -164q-82 -5 -123.5 16.5t-41.5 64.5q0 21 11.5 47t25.5 46h86q-10 -17 -16 -35.5t-6 -31.5q0 -47 79 -51z" />
    <glyph glyph-name="caron" unicode="&#x2c7;" 
d="M203 741h90l58 -66l97 66h100l-156 -146h-112z" />
    <glyph glyph-name="Lslash" unicode="&#x141;" horiz-adv-x="655" 
d="M130 278l-80 -22l31 114l81 23l82 307h120l-73 -271l220 61l-31 -114l-219 -61l-55 -203h371l-30 -112h-491z" />
    <glyph glyph-name="lslash" unicode="&#x142;" horiz-adv-x="344" 
d="M122 296l-81 -22l30 115l81 22l86 319h121l-76 -282l82 22l-31 -115l-81 -22l-90 -333h-121z" />
    <glyph glyph-name="Scaron" unicode="&#x160;" horiz-adv-x="637" 
d="M300 904h90l58 -66l97 66h100l-156 -146h-112zM296 -10q-100 0 -174.5 33.5t-122.5 97.5l93 77q43 -49 93 -74t118 -25q59 0 97 26.5t38 70.5q0 16 -6 29t-21 25t-40 24.5t-62 27.5q-40 16 -73 34t-57 40t-37 50t-13 64q0 49 21 90t57.5 69.5t85.5 44.5t105 16
q88 0 151 -28.5t106 -76.5l-86 -84q-40 39 -82.5 59.5t-97.5 20.5q-31 0 -55 -8t-40.5 -20.5t-25.5 -29t-9 -34.5q0 -17 7 -30t23 -25t42 -24.5t64 -27.5q40 -16 72.5 -33.5t55 -40t34.5 -50.5t12 -64q0 -51 -22 -92.5t-59 -71t-87 -45t-105 -15.5z" />
    <glyph glyph-name="scaron" unicode="&#x161;" horiz-adv-x="498" 
d="M199 741h90l58 -66l97 66h100l-156 -146h-112zM217 -12q-60 0 -123.5 23.5t-109.5 71.5l72 74q42 -42 86 -58t84 -16q36 0 60.5 17t24.5 46q0 20 -18.5 34.5t-58.5 31.5q-33 13 -61 27t-48 31.5t-31.5 40t-11.5 52.5q0 37 14.5 69t41.5 55.5t65 37t86 13.5
q63 0 116.5 -22.5t86.5 -51.5l-67 -78q-73 58 -145 58q-39 0 -60 -17t-21 -43q0 -20 19.5 -35t64.5 -34q30 -13 56.5 -27t46 -31t31 -39t11.5 -51q0 -41 -16 -74t-44.5 -56.5t-67 -36t-83.5 -12.5z" />
    <glyph glyph-name="Yacute" unicode="&#xdd;" horiz-adv-x="655" 
d="M520 922l108 -49l-153 -115h-105zM263 278l-156 422h136l106 -316l277 316h152l-395 -435l-71 -265h-123z" />
    <glyph glyph-name="yacute" unicode="&#xfd;" horiz-adv-x="585" 
d="M445 759l108 -49l-153 -115h-105zM65 -163q-38 0 -66 9.5t-53 26.5l64 89q14 -10 32.5 -16.5t35.5 -6.5q23 0 43.5 12t46.5 47l-77 530h124l44 -391l233 391h132l-341 -543q-53 -81 -103.5 -114.5t-114.5 -33.5z" />
    <glyph glyph-name="Thorn" unicode="&#xde;" horiz-adv-x="683" 
d="M327 226q97 0 152.5 38.5t55.5 109.5q0 41 -27 68q-36 37 -114 37h-123l-68 -253h124zM207 700h123l-29 -110h98q72 0 123.5 -16t88.5 -52q26 -26 39 -60t13 -78q0 -64 -25.5 -113.5t-71.5 -83.5t-108.5 -51.5t-136.5 -17.5h-146l-32 -118h-124z" />
    <glyph glyph-name="thorn" unicode="&#xfe;" horiz-adv-x="668" 
d="M315 92q37 0 70 16.5t58 45.5t39.5 67.5t14.5 82.5q0 61 -34 96t-91 35q-36 0 -70.5 -17t-61 -45.5t-42.5 -66.5t-16 -80q0 -29 9.5 -53.5t27 -42.5t42 -28t54.5 -10zM201 730h121l-74 -272q36 36 76.5 58.5t92.5 22.5q44 0 82 -15.5t65.5 -45t43 -71.5t15.5 -94
q0 -70 -24.5 -129.5t-65.5 -102.5t-94 -67.5t-110 -24.5q-70 0 -112 30.5t-66 74.5l-68 -254h-121z" />
    <glyph glyph-name="Zcaron" unicode="&#x17d;" horiz-adv-x="681" 
d="M325 904h90l58 -66l97 66h100l-156 -146h-112zM5 91l535 500h-387l30 109h557l-25 -91l-535 -500h404l-29 -109h-574z" />
    <glyph glyph-name="zcaron" unicode="&#x17e;" horiz-adv-x="554" 
d="M218 741h90l58 -66l97 66h100l-156 -146h-112zM-1 83l388 346h-285l26 99h445l-22 -83l-389 -346h299l-27 -99h-458z" />
    <glyph glyph-name="eth" unicode="&#xf0;" horiz-adv-x="631" 
d="M289 92q37 0 68.5 14.5t55 38.5t36.5 55.5t13 65.5q0 57 -36 94t-99 37q-36 0 -66.5 -14t-53.5 -37.5t-36 -55t-13 -66.5q0 -63 37 -97.5t94 -34.5zM281 -12q-53 0 -97 17t-76 47t-49.5 72t-17.5 93q0 56 21.5 105t58.5 85.5t85 57.5t102 21q51 0 87 -15.5t65 -41.5
l-71 160l-141 -55l-32 64l143 56l-34 76h123l16 -37l115 45l32 -64l-119 -46l48 -116q23 -54 34 -101t11 -99q0 -66 -21 -124.5t-60.5 -103t-96 -70.5t-126.5 -26z" />
    <glyph glyph-name="apple" horiz-adv-x="967" 
d="M417 64q0 -7 -2.5 -12t-9.5 -5q-6 0 -9 5t-3 12q0 16 12 16t12 -16zM352 64h-3q-8 0 -8 8q0 6 7 6q4 0 4 -4v-10zM553 79q4 0 0 -9q-5 9 0 9zM393 182q0 -7 -4 -7h-5q-11 0 -18.5 10t-7.5 22q0 17 14 17h6q3 -1 3.5 -1.5t2.5 -5.5zM716 187q0 -13 -11 -13q-9 0 -17 11.5
t-8 26.5q0 14 11 14q9 0 17 -11.5t8 -27.5zM275 200q-8 0 -11.5 5t-3.5 10q0 9 8 9t9 -5l3 -19h-5zM381 384q-13 0 -13 11t13 11h11v-22h-11zM684 535q0 -13 -11 -13q-9 0 -17 11.5t-8 26.5q0 14 11 14q9 0 17 -11.5t8 -27.5zM272 553q-3 -4 -7 -4t-4 2q0 3 4 3q5 0 7 -1z
M566 553q-3 -4 -7 -4t-4 2q0 3 4 3q5 0 7 -1zM171 548q-8 0 -11.5 5t-3.5 10q0 9 8 9t9 -5l3 -19h-5zM441 -88q0 13 -11 13t-11 -12q0 -13 11 -13t11 12zM800 -88q0 13 -11 13t-11 -12q0 -13 11 -13t11 12zM559 -80l-5 -12h10zM394 -83q0 8 -11 7v-13q11 0 11 6zM525 -82
q0 8 -11 6v-12q11 -1 11 6zM606 -83q0 8 -11 7v-13q11 0 11 6zM309 48q-2 0 -3 1q-3 1 -3 5v20q0 2 3 4q1 1 3 1v2h-18v-2q1 0 3 -1q3 -3 3 -4v-9q-2 0 -4 2l-8 8q-3 1 -1 3q1 1 2 1v2h-14v-2q1 0 3 -1t2.5 -1.5t2.5 -1.5l10 -9l-13 -13q-1 -1 -2 -1.5t-2 -1.5q-2 -1 -3 -2
v-2h17v2q-2 0 -3 1t1 4l8 8q2 2 4 2v-9q0 -2 -3 -5q-2 -1 -3 -1v-2h18v2zM364 48q-2 0 -3 1q-2 2 -2 4v20q0 3 2 5q1 1 3 1v2h-18q-13 0 -13 -9q0 -5 9 -9l-7 -10q-2 -2 -3.5 -2.5t-2.5 -1.5l-2 -1v-2h11l7 12q3 4 7 4v-9q0 -2 -1 -2.5t-2 -1.5t-2 -1v-2h17v2zM425 64
q0 8 -5 13t-15 5t-15 -5t-5 -13t5 -13.5t15 -5.5t15 5.5t5 13.5zM480 81h-15v-2q1 0 2 -1t-1 -4l-6 -9l-6 9q-2 2 0 4q1 1 3 1v2h-15v-2q1 0 3 -1t5 -4l8 -12v-8q0 -2 -3 -5q-1 -1 -2 -1v-2h17v2q-2 0 -3 1q-2 2 -2 5v8l8 12q1 2 2.5 2.5t2.5 1.5t2 1v2zM568 81v-2q1 0 2 -1
t0 -4l-9 -19l-5 10l4 8q1 2 2 2.5t2 1.5l2 2v2h-26l1 -2q1 0 2 -1l2 -2l3 -3l3 -5l-7 -13l-8 18q-2 3 0 5q1 1 2 1v2h-13v-2q1 0 2 -1q3 -3 4 -5l13 -27h1q1 -1 1 0l8 16l9 -16h1l12 27q1 2 2.5 3t2.5 2t2 1v2h-15zM633 48q-2 -1 -3 0q-2 0 -2 5v21q0 3 2 5h3v2h-29l-2 -10
l2 -1q0 2 2 4q2 4 7 4h4q4 0 4 -3v-10h-4q-3 0 -5 2q-1 1 -1 3h-2v-13h2q0 1 1 3q3 3 5 3h4v-11q0 -3 -4 -3h-4q-4 0 -8 4q-2 2 -2 5l-2 -1l2 -11h30v2zM694 48q-2 0 -3 1q-3 1 -3 4v20q0 2 3 4q1 1 3 2v2h-10l-24 -26v18q0 3 3 5q1 1 3 1v2h-15v-2q1 0 3 -1q3 -3 3 -5v-28
h3l25 28v-20q0 -1 -3 -4q-1 -1 -2 -1v-2h14v2zM827 133h-685v-6h685v6zM306 174q-2 0 -4 1t-3.5 2t-2.5 5l-7 35q-1 5 3 7q2 1 4 1l-1 3h-27q-20 0 -20 -15q0 -6 5.5 -10t13.5 -5l-9 -16q-2 -4 -4.5 -5t-4.5 -2q-3 -1 -5 -1l1 -3h19l12 23q1 3 5 3l3 -15q1 -5 -3 -7
q-2 -1 -4 -1l1 -3h29zM413 175q-2 -1 -4 0q-5 2 -6 9l-8 31q-3 9 8 10l-1 3h-30q-9 0 -17 -5.5t-8 -16.5q0 -16 11 -25.5t24 -9.5h32zM522 174q-1 0 -3 1q-5 2 -6 9l-7 32q-1 6 3 8q2 1 5 1l-1 3h-14l-29 -42l-5 30q-1 6 3 8q2 1 4 1l-1 3h-21l1 -3q2 0 4 -1q3 -2 5 -8
l8 -45l3 -1l30 44l6 -30q1 -7 -2 -9q-2 -1 -4 -1l1 -3h21zM620 228h-29l1 -3q2 0 4 -1q5 -2 6 -8l5 -21q2 -10 1 -15t-12 -5q-8 0 -13 6.5t-7 15.5l-4 19q-1 7 3 9q2 1 4 0v3h-24l1 -3q2 0 5 -1q5 -2 6 -8l4 -19q2 -8 8 -17.5t20 -9.5q17 0 19 8t0 16l-5 22q-2 4 -0.5 6
t3.5 3t5 0zM822 174q-2 0 -4 1t-3.5 2t-2.5 5l-7 35q-1 5 3 7q2 1 4 1l-1 3h-45v-10v-7h4q-1 3 1 6q2 7 12 7h4q5 0 6 -6l3 -16h-4q-5 0 -9 4q-2 2 -3 5h-3l5 -23h3q0 2 1 5q2 6 7 6h4l3 -17q1 -5 -3 -7q-2 -1 -4 -1l1 -3h29zM203 217q-3 5 -6.5 9t-11.5 4q-15 0 -14 -23
q-3 10 -8 16.5t-13 6.5q-5 0 -8.5 -3t-3.5 -9l3 -1q0 6 8 6q10 0 15.5 -10.5t8.5 -22.5q2 -7 1 -9.5t-3 -4.5t-4 -1l1 -4h28l-1 4q-2 -1 -4 0q-5 2 -6 9q-5 17 -5 25q0 13 9 13q5 0 7.5 -2.5l4.5 -4.5zM728 192q0 15 -11.5 26.5t-25.5 11.5q-7 0 -15 -5t-8 -17
q0 -16 11.5 -27t25.5 -11q7 0 15 5t8 17zM827 277h-685v-6h685v6zM283 341h-14v65h14v34h-141v-62h41v28h33v-20h-24v-24h24v-21h-33v28h-41v-61h141v33zM458 341h-14v65h14v34h-96q-22 0 -34.5 -11.5t-12.5 -28.5t12.5 -28.5t34.5 -11.5h30v-19h-15v-33h81v33zM648 440h-81
v-34h11l-15 -23l-15 23h10v34h-62v-34h12l37 -46v-19h-14v-33h81v33h-15v20l37 45h14v34zM827 440h-147v-62h36v28h11v-65h-14v-33h81v33h-14v65h11v-28h36v62zM827 481h-685v-6h685v6zM400 521q0 2 -3 5t-10 4q-4 3 -4.5 10.5t-2 16t-6 15t-16.5 6.5q-5 0 -9 -3.5t-4 -6.5
q0 -5 5 -5q4 0 4 6t5 6t6.5 -5t2.5 -12t3.5 -14.5t8.5 -13.5q-11 0 -14.5 -6.5t-8.5 -6.5t-5 4q0 2 1 2.5t1 2.5q0 5 -5 5t-5 -7q0 -5 5 -8.5t10 -3.5q13 0 15 6.5t10 6.5q3 -7 12 -7q4 0 4 3zM202 522q-2 0 -4 1t-3.5 2t-2.5 5l-7 35q-1 5 3 7q2 1 4 1l-1 3h-27
q-20 0 -20 -15q0 -6 5.5 -10t13.5 -5l-9 -16q-2 -4 -4.5 -5t-4.5 -2q-3 -1 -5 -1l1 -3h19l12 23q1 3 5 3l3 -15q1 -5 -3 -7q-2 -1 -4 -1l1 -3h29zM497 522q-2 0 -4 1t-3.5 2t-2.5 5l-7 35q-1 5 3 7q2 1 4 1l-1 3h-45v-10v-7h4q-1 3 1 6q2 7 12 7h4q5 0 6 -6l3 -16h-4
q-5 0 -9 4q-2 2 -3 5h-3l5 -23h3q0 2 1 5q2 6 7 6h4l3 -17q1 -5 -3 -7q-2 -1 -4 -1l1 -3h29zM820 522q-2 0 -4 1t-3.5 2t-2.5 5l-7 35q-1 5 3 7q2 1 4 1l-1 3h-28l1 -3q2 0 4 -1q4 -2 5 -7l3 -15h-24l-3 15q-1 5 3 7q2 1 4 1l-1 3h-29l1 -3q2 0 4 -1q5 -2 6 -7l7 -35
q1 -5 -3 -7q-2 -1 -4 -1l1 -3h29l-1 3q-2 0 -4 1t-3.5 2t-2.5 5l-3 16h24l3 -16q1 -5 -3 -7q-2 -1 -4 -1l1 -3h29zM295 537q0 12 -14 17q5 3 5 9q0 5 -5 10t-16 5q-13 0 -13 -11q0 -6 5 -6q4 0 4 3t-1.5 3.5t-1.5 2.5q0 5 7 5q10 0 10 -12q0 -4 -2 -6q-16 2 -16 -6
q0 -6 8 -6q6 0 11 5q6 -5 6 -15q0 -14 -12 -14t-12 9q0 3 3 3q1 0 2 -1t3 -1q4 0 4 5t-7 5q-9 0 -9 -10q0 -13 16 -13q13 0 19 5.5t6 13.5zM589 537q0 12 -14 17q5 3 5 9q0 5 -5 10t-16 5q-13 0 -13 -11q0 -6 5 -6q4 0 4 3t-1.5 3.5t-1.5 2.5q0 5 7 5q10 0 10 -12
q0 -4 -2 -6q-16 2 -16 -6q0 -6 8 -6q6 0 11 5q6 -5 6 -15q0 -14 -12 -14t-12 9q0 3 3 3q1 0 2 -1t3 -1q4 0 4 5t-7 5q-9 0 -9 -10q0 -13 16 -13q13 0 19 5.5t6 13.5zM696 540q0 15 -11.5 26.5t-25.5 11.5q-7 0 -15 -5t-8 -17q0 -16 11.5 -27t25.5 -11q7 0 15 5t8 17z
M827 624h-685v-6h685v6zM439 664q-2 -1 -3 0q-2 0 -2 5v21q0 3 2 5h3v2h-29l-2 -10l2 -1q0 2 2 4q2 4 7 4h4q4 0 4 -3v-10h-4q-3 0 -5 2q-1 1 -1 3h-2v-13h2q0 1 1 3q3 3 5 3h4v-11q0 -3 -4 -3h-4q-4 0 -8 4q-2 2 -2 5l-2 -1l2 -11h30v2zM504 664q-2 -1 -3 0q-3 0 -3 5v21
q0 3 3 5h3v2h-18v-1v-1h2q3 -3 3 -5v-9h-17v9q0 3 2 5h3v1v1h-17v-2h2q3 -3 3 -5v-21q0 -2 -1 -2.5t-2 -1.5t-2 -1v-2h17v2q-2 0 -3 1q-2 2 -2 4v10h17v-10q0 -5 -3 -5q-1 -1 -2 0v-2h18v2zM559 686v4q0 2 -0.5 4t-0.5 4q-2 -1 -17 -1t-18 1q0 -2 -0.5 -4t-0.5 -4v-4h2
q1 2 3 4q5 5 7 5q3 0 3 -3v-23q0 -5 -3 -5q-1 -1 -2 0v-2h17v2q-2 -1 -3 0q-2 0 -2 5v23q0 3 3 3t8 -5q2 -2 2 -4h2zM284 -101q0 -4 -4 -4t-4 4t4 4t4 -4zM716 -101q0 -4 -4 -4t-4 4t4 4t4 -4zM143 -105h-1l-11 23l-10 -23h-1l-12 34l6 1l7 -23l10 23h1l10 -23l7 22h6z
M199 -105h-1l-11 23l-10 -23h-1l-12 34l6 1l7 -23l10 23h1l10 -23l7 22h6zM255 -105h-1l-11 23l-10 -23h-1l-12 34l6 1l7 -23l10 23h1l10 -23l7 22h6zM323 -76h-12v-28h-6v28h-12v5h30v-5zM351 -90v-14h-6v14l-14 19l6 1l11 -15l9 14h7zM400 -82q0 -12 -17 -12v-10h-6v33
q14 2 18.5 -2t4.5 -9zM447 -87q0 -8 -4.5 -13t-12.5 -5t-12.5 5t-4.5 12q0 8 5 13t13 5q7 0 11.5 -5t4.5 -12zM491 -101q-6 -4 -13 -4q-8 0 -13 4.5t-5 12.5t5.5 13t13.5 5q6 0 12 -4l-2 -5q-4 4 -11 4q-12 0 -12 -13q0 -12 13 -12q2 0 6 2v7h-9v5h15v-15zM527 -104l-8 11
h-5v-11h-6v33q14 2 18.5 -1.5t4.5 -8.5q0 -7 -7 -10l10 -13h-7zM570 -104l-4 8h-14l-3 -8h-6l15 34h2l16 -34h-6zM612 -82q0 -12 -17 -12v-10h-6v33q14 2 18.5 -2t4.5 -9zM650 -104v15h-16v-15h-6v33h6v-13h16v13h6v-33h-6zM689 -90v-14h-6v14l-14 19l6 1l11 -15l9 14h7z
M757 -102q-3 -3 -10 -3q-18 0 -18 17q0 8 5 13t13 5q6 0 11 -3l-2 -5q-3 3 -9 3q-5 0 -8.5 -3.5t-3.5 -8.5q0 -13 13 -13q4 0 10 4zM806 -87q0 -8 -4.5 -13t-12.5 -5t-12.5 5t-4.5 12q0 8 5 13t13 5q7 0 11.5 -5t4.5 -12zM853 -104l-3 20l-10 -21h-2l-10 21l-3 -20h-6l6 34
h1l13 -26l13 26h1l6 -34h-6zM101 0v750h767v-750h-767z" />
    <glyph glyph-name="Eth" unicode="&#xd0;" horiz-adv-x="798" 
d="M308 112q78 0 143.5 24t112.5 71q38 38 58 87t20 106q0 42 -13 74t-36 55q-28 28 -73 43.5t-109 15.5h-87l-49 -181h169l-30 -110h-169l-50 -185h113zM122 297h-81l30 110h81l78 293h190q97 0 164 -24.5t109 -66.5q77 -76 77 -204q0 -79 -29 -149t-84 -125
q-63 -63 -154.5 -97t-209.5 -34h-251z" />
  </font>
</defs>
</svg>
