<?xml version="1.0" standalone="no"?>
<!DOCTYPE svg PUBLIC "-//W3C//DTD SVG 1.1//EN" "http://www.w3.org/Graphics/SVG/1.1/DTD/svg11.dtd" >
<svg>
<metadata>
Created by FontForge 20120731 at Wed Jul 20 14:37:39 2016
 By ,,,
HTF Gotham  Copr. 2003 The Hoefler Type Foundry, Inc. Info: www.typography.com
</metadata>
<defs>
<font id="GothamThin-Italic" horiz-adv-x="500" >
  <font-face 
    font-family="Gotham Thin"
    font-weight="100"
    font-style="italic"
    font-stretch="normal"
    units-per-em="1000"
    panose-1="2 0 6 3 3 0 0 9 0 4"
    ascent="800"
    descent="-200"
    x-height="500"
    cap-height="700"
    bbox="-130 -167 1218 889"
    underline-thickness="20"
    underline-position="-113"
    slope="-12"
    unicode-range="U+0020-FB02"
  />
<missing-glyph 
 />
    <glyph glyph-name="fi" unicode="fi" horiz-adv-x="545" 
d="M490 500h21l-134 -500h-21zM175 481h-79l5 19h79l24 88q12 43 29 70.5t37.5 43.5t43 22t45.5 6q26 0 47 -5.5t39 -16.5l-6 -20q-17 11 -38 16t-43 5q-20 0 -39.5 -5.5t-37 -19.5t-32.5 -38t-25 -62l-23 -84h183l-5 -19h-183l-129 -481h-21zM539 700h31l-16 -57h-31z" />
    <glyph glyph-name="fl" unicode="fl" horiz-adv-x="544" 
d="M175 481h-79l5 19h79l24 88q12 43 29 70.5t37.5 43.5t43 22t45.5 6q26 0 47 -5.5t39 -16.5l-6 -20q-17 11 -38 16t-43 5q-20 0 -39.5 -5.5t-37 -19.5t-32.5 -38t-25 -62l-23 -84h183l-5 -19h-183l-129 -481h-21zM552 730h21l-196 -730h-21z" />
    <glyph glyph-name=".notdef" 
 />
    <glyph glyph-name="NUL" horiz-adv-x="0" 
 />
    <glyph glyph-name="nonmarkingreturn" horiz-adv-x="280" 
 />
    <glyph glyph-name="space" unicode=" " horiz-adv-x="280" 
 />
    <glyph glyph-name="exclam" unicode="!" horiz-adv-x="194" 
d="M26 52h36l-14 -52h-36zM178 592l29 108h22l-29 -108l-116 -409h-10z" />
    <glyph glyph-name="quotedbl" unicode="&#x22;" horiz-adv-x="304" 
d="M196 700h25v-2l-116 -252h-12zM324 700h25v-2l-116 -252h-12z" />
    <glyph glyph-name="numbersign" unicode="#" horiz-adv-x="660" 
d="M435 220l93 266h-240l-92 -266h239zM169 201h-114l5 19h116l93 266h-127l5 19h128l68 195h20l-68 -195h239l68 195h20l-68 -195h114l-5 -19h-116l-92 -266h126l-5 -19h-128l-70 -201h-20l70 201h-239l-70 -201h-20z" />
    <glyph glyph-name="dollar" unicode="$" horiz-adv-x="622" 
d="M298 18q54 0 94 15t66 39t39 53t13 57q0 35 -12.5 59.5t-35 43t-53 32.5t-65.5 27l-87 -324q11 -1 20.5 -1.5t20.5 -0.5zM415 679q-20 3 -41 3q-51 0 -90 -14t-65.5 -36.5t-40 -50.5t-13.5 -57q0 -33 13 -56t35.5 -40.5t53 -31t65.5 -26.5zM234 5q-64 11 -118.5 42.5
t-92.5 78.5l16 14q38 -49 89 -77.5t111 -39.5l88 328q-36 13 -69.5 28t-59 35t-40.5 46.5t-15 62.5q0 32 15 64t44 57t73 40.5t101 15.5q21 0 44 -3l16 61h19l-17 -64q51 -10 95.5 -34.5t74.5 -57.5l-15 -14q-32 34 -72 56.5t-88 31.5l-84 -313q36 -13 69 -28t58.5 -35.5
t40.5 -49t15 -67.5q0 -32 -14 -64.5t-43 -58.5t-73.5 -43t-105.5 -17q-11 0 -22 0.5t-22 1.5l-27 -100h-19z" />
    <glyph glyph-name="percent" unicode="%" horiz-adv-x="824" 
d="M585 12q34 0 64 16.5t52 43.5t34.5 62t12.5 71q0 27 -8 51t-23 41t-36 27t-46 10q-34 0 -64 -16.5t-52 -43.5t-34.5 -62t-12.5 -71q0 -27 8 -51t23 -41t35.5 -27t46.5 -10zM239 366q34 0 64 16.5t52 43.5t34.5 62t12.5 71q0 27 -8 51t-23 41t-36 27t-46 10
q-34 0 -64 -16.5t-52 -43.5t-34.5 -62t-12.5 -71q0 -27 8 -51t23 -41t35.5 -27t46.5 -10zM584 -8q-30 0 -54.5 11t-42.5 31t-27.5 47t-9.5 59q0 40 14.5 78.5t40 68.5t59.5 48.5t72 18.5q30 0 54.5 -11t42.5 -31t27.5 -47t9.5 -59q0 -41 -14.5 -79.5t-40 -68.5t-59.5 -48
t-72 -18zM773 700h26l-698 -700h-26zM238 346q-30 0 -54.5 11t-42.5 31t-27.5 47t-9.5 59q0 40 14.5 78.5t40 68.5t59.5 48.5t72 18.5q30 0 54.5 -11t42.5 -31t27.5 -47t9.5 -59q0 -41 -14.5 -79.5t-40 -68.5t-59.5 -48t-72 -18z" />
    <glyph glyph-name="ampersand" unicode="&#x26;" horiz-adv-x="676" 
d="M229 10q69 0 133 33.5t121 92.5l-174 245q-47 -12 -92 -29t-80.5 -42t-57.5 -61t-22 -86q0 -37 14 -65.5t38 -48t55 -29.5t65 -10zM318 400q50 13 92 29.5t72.5 38t47.5 49t17 63.5q0 24 -9 44.5t-25.5 35.5t-40 23.5t-51.5 8.5q-34 0 -63 -11t-50.5 -30.5t-34 -47
t-12.5 -59.5q0 -33 15.5 -69.5t41.5 -74.5zM494 120q-62 -61 -127 -95.5t-139 -34.5q-38 0 -73 11.5t-61.5 33.5t-42.5 54t-16 73q0 55 23.5 94t61.5 66t84.5 44.5t93.5 29.5q-28 41 -43.5 76.5t-15.5 69.5q0 37 14 68.5t39 54t58 35t72 12.5q32 0 59 -10t46.5 -27.5
t30.5 -41.5t11 -52q0 -39 -18 -69.5t-50.5 -54t-76.5 -41t-95 -31.5l168 -236q35 39 65 82t61 95l18 -10q-32 -52 -64 -96t-69 -86l93 -132l-15 -11z" />
    <glyph glyph-name="quotesingle" unicode="'" horiz-adv-x="176" 
d="M196 700h25v-2l-116 -252h-12z" />
    <glyph glyph-name="parenleft" unicode="(" horiz-adv-x="390" 
d="M268 -130q-35 27 -67.5 62t-57.5 78.5t-39.5 95.5t-14.5 114q0 76 25.5 150t75.5 140t124.5 120t172.5 89l7 -19q-95 -34 -166.5 -85.5t-119.5 -115t-72.5 -135t-24.5 -144.5q0 -59 14 -109t37.5 -91.5t54 -75t64.5 -59.5z" />
    <glyph glyph-name="parenright" unicode=")" horiz-adv-x="390" 
d="M-81 -115q94 34 166 85.5t120 115t72.5 135t24.5 144.5q0 59 -14 109t-37.5 91.5t-54 75t-64.5 59.5l13 15q35 -27 67.5 -62t57 -78.5t39.5 -96t15 -113.5q0 -76 -25.5 -150t-75.5 -140t-124.5 -120t-172.5 -89z" />
    <glyph glyph-name="asterisk" unicode="*" horiz-adv-x="431" 
d="M246 414l42 134l-134 -43l-6 21l138 30l-105 96l17 15l94 -104l31 137l21 -6l-42 -134l134 43l6 -21l-138 -30l105 -96l-17 -15l-94 104l-31 -137z" />
    <glyph glyph-name="plus" unicode="+" horiz-adv-x="552" 
d="M289 343h-199l5 18h199l56 210h20l-56 -210h199l-5 -18h-199l-56 -210h-20z" />
    <glyph glyph-name="comma" unicode="," horiz-adv-x="164" 
d="M-29 -67q18 5 27.5 22.5t16.5 44.5h-18l14 52h36l-12 -46q-11 -43 -25 -61.5t-35 -23.5z" />
    <glyph glyph-name="hyphen" unicode="-" horiz-adv-x="388" 
d="M84 308h248l-6 -21h-248z" />
    <glyph glyph-name="hyphen" unicode="&#xad;" horiz-adv-x="388" 
d="M84 308h248l-6 -21h-248z" />
    <glyph glyph-name="period" unicode="." horiz-adv-x="164" 
d="M11 52h36l-14 -52h-36z" />
    <glyph glyph-name="slash" unicode="/" horiz-adv-x="491" 
d="M621 798h24l-718 -926h-24z" />
    <glyph glyph-name="zero" unicode="0" horiz-adv-x="708" 
d="M320 8q73 0 134 38t105 100.5t68 141t24 159.5q0 52 -12.5 97t-38.5 78t-65.5 51.5t-93.5 18.5q-74 0 -134.5 -38t-104.5 -100.5t-68 -141t-24 -159.5q0 -53 12.5 -97.5t38.5 -77.5t65.5 -51.5t93.5 -18.5zM319 -12q-58 0 -101 20t-72 55.5t-43.5 83.5t-14.5 105
q0 85 26 167.5t73 147.5t112 105t143 40q58 0 101 -20t72 -55.5t43.5 -83.5t14.5 -105q0 -85 -26 -167.5t-73 -147.5t-112 -105t-143 -40z" />
    <glyph glyph-name="one" unicode="1" horiz-adv-x="313" 
d="M284 680l-147 -60l-4 20l161 65h18l-189 -705h-21z" />
    <glyph glyph-name="two" unicode="2" horiz-adv-x="559" 
d="M-18 13l429 338q36 29 61.5 53.5t41.5 47t23.5 45.5t7.5 49q0 29 -11.5 55t-34 46t-56 31.5t-76.5 11.5q-36 0 -66 -9t-56 -24t-48 -34.5t-41 -41.5l-15 13q20 23 44 44t51.5 37t60.5 25.5t71 9.5q48 0 85.5 -13.5t62.5 -36t38 -52t13 -61.5q0 -29 -7.5 -54t-24.5 -49.5
t-44.5 -51t-67.5 -57.5l-402 -315h437l-5 -20h-474z" />
    <glyph glyph-name="three" unicode="3" horiz-adv-x="555" 
d="M226 -11q-86 0 -145 35t-88 94l19 9q29 -54 82.5 -86t132.5 -32q51 0 95.5 14t78.5 39.5t53.5 62t19.5 82.5q0 31 -13.5 58.5t-41 47.5t-70.5 31.5t-102 11.5h-24l-5 14l347 310h-397l6 20h428l-5 -16l-345 -309q119 -1 181.5 -46.5t62.5 -120.5q0 -50 -21.5 -90.5
t-58 -69t-86 -44t-104.5 -15.5z" />
    <glyph glyph-name="four" unicode="4" horiz-adv-x="618" 
d="M438 203l125 467l-509 -467h384zM433 183h-412l-3 13l557 509h18l-134 -502h115l-5 -20h-115l-49 -183h-21z" />
    <glyph glyph-name="five" unicode="5" horiz-adv-x="578" 
d="M246 -12q-42 0 -78.5 10t-66 27.5t-51.5 41t-36 49.5l19 10q26 -48 78.5 -83t135.5 -35q53 0 98.5 17t79 46.5t52.5 69t19 84.5q0 83 -54.5 125t-141.5 42q-85 0 -175 -43l-11 9l112 342h365l-6 -20h-345l-99 -303q38 17 78 26t82 9q46 0 86 -12t69 -35.5t45.5 -58
t16.5 -80.5q0 -49 -21 -92t-57.5 -75.5t-86.5 -51.5t-107 -19z" />
    <glyph glyph-name="six" unicode="6" horiz-adv-x="621" 
d="M304 8q52 0 96.5 18.5t77 50.5t51 73.5t18.5 88.5q0 36 -12.5 67t-37.5 54t-62 36t-86 13q-54 0 -99 -18.5t-78 -48t-51.5 -67t-18.5 -74.5q0 -44 14.5 -77.5t40.5 -59.5q27 -27 65.5 -41.5t81.5 -14.5zM302 -12q-47 0 -89 16t-73 47q-25 25 -42 64.5t-17 90.5
q0 62 10.5 120.5t30 111.5t48 99t64.5 82q48 48 103 70.5t113 22.5q55 0 104.5 -23.5t88.5 -71.5l-17 -13q-37 45 -81.5 66.5t-95.5 21.5q-55 0 -103.5 -19.5t-95.5 -66.5q-70 -70 -102 -155t-44 -175q10 27 32 54.5t54 49.5t72.5 35.5t87.5 13.5q54 0 94.5 -15.5t68.5 -41
t42 -60t14 -71.5q0 -51 -20 -97t-56 -80.5t-85 -55t-106 -20.5z" />
    <glyph glyph-name="seven" unicode="7" horiz-adv-x="531" 
d="M558 680h-429l6 20h455l-4 -13l-509 -687h-25z" />
    <glyph glyph-name="eight" unicode="8" horiz-adv-x="625" 
d="M295 10q57 0 102 13.5t76.5 37t48 56t16.5 70.5q0 35 -16.5 65.5t-45.5 53t-69 35.5t-88 13q-54 0 -100.5 -15t-80 -40t-52.5 -58.5t-19 -69.5q0 -38 17 -67.5t47 -50.5t72 -32t92 -11zM357 368q47 0 89 13.5t73.5 37t49.5 56.5t18 72q0 31 -15.5 57t-42 45t-62 30
t-76.5 11q-47 0 -87 -13t-69 -35.5t-45.5 -54t-16.5 -68.5q0 -32 14.5 -59.5t39 -47.5t58 -32t72.5 -12zM295 -10q-55 0 -101 12.5t-79 36t-51.5 57t-18.5 74.5q0 37 17 70.5t47.5 60t73 44t93.5 22.5q-57 20 -91 59t-34 92q0 40 18 75t50.5 61t76.5 41t96 15q45 0 84.5 -12
t69 -33.5t46.5 -51t17 -65.5t-14.5 -68t-41 -57.5t-63 -42.5t-81.5 -23q69 -19 110 -64.5t41 -104.5q0 -42 -18.5 -78.5t-53 -63t-83.5 -41.5t-110 -15z" />
    <glyph glyph-name="nine" unicode="9" horiz-adv-x="621" 
d="M324 291q54 0 99 18.5t78 48t51.5 66.5t18.5 75q0 44 -14.5 77.5t-40.5 59.5q-27 27 -65.5 41.5t-81.5 14.5q-52 0 -96.5 -18.5t-77 -50.5t-51 -74t-18.5 -88q0 -36 12.5 -67t37.5 -54t62 -36t86 -13zM223 -12q-55 0 -104.5 23.5t-88.5 71.5l17 13q37 -45 81.5 -66.5
t95.5 -21.5q55 0 103.5 19.5t95.5 66.5q70 70 102 155t44 175q-10 -27 -32 -54.5t-54 -49.5t-72.5 -35.5t-87.5 -13.5q-54 0 -94.5 15.5t-68.5 41t-42 59.5t-14 72q0 51 20 97t56 80.5t85 55t106 20.5q47 0 89 -16t73 -47q25 -25 42 -64.5t17 -90.5q0 -62 -10.5 -120.5
t-30 -111.5t-48 -99t-64.5 -82q-48 -48 -103 -70.5t-113 -22.5z" />
    <glyph glyph-name="colon" unicode=":" horiz-adv-x="168" 
d="M13 52h36l-14 -52h-36zM133 500h36l-14 -52h-36z" />
    <glyph glyph-name="semicolon" unicode=";" horiz-adv-x="168" 
d="M-27 -67q18 5 27.5 22.5t16.5 44.5h-18l14 52h36l-12 -46q-11 -43 -25 -61.5t-35 -23.5zM133 500h36l-14 -52h-36z" />
    <glyph glyph-name="semicolon" unicode="&#x37e;" horiz-adv-x="168" 
d="M-27 -67q18 5 27.5 22.5t16.5 44.5h-18l14 52h36l-12 -46q-11 -43 -25 -61.5t-35 -23.5zM133 500h36l-14 -52h-36z" />
    <glyph glyph-name="less" unicode="&#x3c;" horiz-adv-x="600" 
d="M83 347l3 10l522 235l-6 -24l-486 -218l370 -216l-6 -22z" />
    <glyph glyph-name="equal" unicode="=" horiz-adv-x="600" 
d="M90 245h414l-5 -20h-414zM153 480h414l-5 -20h-414z" />
    <glyph glyph-name="greater" unicode="&#x3e;" horiz-adv-x="600" 
d="M49 136l486 218l-370 216l6 22l397 -235l-3 -10l-522 -235z" />
    <glyph glyph-name="question" unicode="?" horiz-adv-x="501" 
d="M151 52h36l-14 -52h-36zM234 340l3 3q52 5 100.5 18.5t85 37.5t58.5 58.5t22 81.5q0 31 -11.5 58.5t-34 47.5t-55.5 32t-76 12q-69 0 -121 -28.5t-90 -66.5l-14 14q21 20 45 38.5t51.5 32.5t60 22t69.5 8q48 0 84.5 -13.5t62 -36.5t38.5 -54t13 -65q0 -50 -22 -87
t-59 -63.5t-86 -42t-103 -22.5l-46 -142h-10z" />
    <glyph glyph-name="at" unicode="@" horiz-adv-x="949" 
d="M437 101q45 0 83 21t65.5 53t42.5 69t15 69q0 69 -34 108t-106 39q-45 0 -81.5 -19.5t-62.5 -51t-40 -70t-14 -77.5q0 -63 33.5 -102t98.5 -39zM446 -159q-89 0 -158.5 27.5t-117.5 76.5t-73.5 115t-25.5 143q0 109 40.5 202t107 161.5t153 107t178.5 38.5q83 0 149 -29
t111.5 -76t70 -108.5t24.5 -125.5q0 -76 -19 -131t-47.5 -91t-62 -53t-63.5 -17q-34 0 -53.5 11.5t-29.5 29.5t-11 39.5t3 41.5q-9 -21 -26.5 -42.5t-41.5 -39.5t-54 -29t-65 -11q-36 0 -64.5 12t-48 33.5t-29.5 50.5t-10 63q0 42 16 85t45 77.5t69.5 56t89.5 21.5
q39 0 67 -11.5t47 -30.5t28.5 -43.5t11.5 -51.5l34 114l19 -4l-58 -191q-24 -78 -9.5 -120.5t70.5 -42.5q28 0 58 16t55.5 49.5t42 85t16.5 122.5q0 61 -23 119t-66.5 103t-105.5 72.5t-141 27.5q-89 0 -171.5 -37t-146.5 -102.5t-102 -155.5t-38 -195q0 -71 23.5 -134
t68.5 -110t111.5 -74t152.5 -27q57 0 116 11t110 37l9 -17q-53 -26 -110.5 -37.5t-125.5 -11.5z" />
    <glyph glyph-name="A" unicode="A" horiz-adv-x="767" 
d="M597 230l-92 447l-334 -447h426zM501 705h19l145 -705h-21l-43 210h-445l-156 -210h-25z" />
    <glyph glyph-name="B" unicode="B" horiz-adv-x="725" 
d="M353 20q66 0 115 14.5t82 40t49 59.5t16 73q0 34 -15.5 59.5t-43 42.5t-65.5 26t-83 9h-257l-87 -324h289zM409 364q121 0 189 47t68 132q0 33 -14 58.5t-39 43t-59.5 26.5t-76.5 9h-236l-84 -316h252zM225 700h256q44 0 82 -10.5t65.5 -30t43.5 -48.5t16 -66
q0 -45 -17.5 -79t-45.5 -57.5t-63.5 -37t-72.5 -17.5q69 -14 108.5 -50.5t39.5 -97.5q0 -42 -17.5 -79.5t-53 -65.5t-89.5 -44.5t-127 -16.5h-313z" />
    <glyph glyph-name="C" unicode="C" horiz-adv-x="726" 
d="M370 -12q-56 0 -106.5 19.5t-88.5 55.5t-60 88t-22 118q0 86 32 166t88.5 141.5t132.5 98.5t164 37q87 0 152.5 -41t97.5 -111l-19 -8q-29 61 -88 100.5t-143 39.5t-156 -35t-125.5 -94t-83.5 -135.5t-30 -158.5q0 -61 20 -109.5t55 -82t82 -51.5t100 -18q45 0 83 9
t70.5 25t60 36.5t50.5 44.5l14 -14q-24 -24 -53 -46t-63.5 -38.5t-75.5 -26.5t-88 -10z" />
    <glyph glyph-name="D" unicode="D" horiz-adv-x="763" 
d="M260 20q105 0 191 32.5t146 92.5q50 50 77 117t27 143q0 60 -18.5 106t-51.5 79q-45 45 -112 67.5t-148 22.5h-130l-177 -660h196zM225 700h140q88 0 161 -24t121 -72q36 -36 56 -85.5t20 -112.5q0 -81 -28.5 -151.5t-81.5 -123.5q-63 -63 -154.5 -97t-202.5 -34h-219z
" />
    <glyph glyph-name="E" unicode="E" horiz-adv-x="661" 
d="M225 700h489l-6 -20h-466l-86 -318h424l-5 -20h-424l-87 -322h472l-5 -20h-494z" />
    <glyph glyph-name="F" unicode="F" horiz-adv-x="629" 
d="M225 700h484l-6 -20h-462l-87 -325h419l-5 -20h-419l-90 -335h-22z" />
    <glyph glyph-name="G" unicode="G" horiz-adv-x="779" 
d="M389 -12q-68 0 -122 22.5t-92 61.5t-58 92.5t-20 115.5q0 85 32 163t88.5 138t134 95.5t168.5 35.5q90 0 151.5 -35.5t97.5 -87.5l-18 -12q-17 24 -38.5 45t-49.5 36.5t-63.5 24.5t-79.5 9q-86 0 -159.5 -33.5t-127 -90.5t-84 -131.5t-30.5 -155.5q0 -59 18.5 -108.5
t54 -86.5t86 -57.5t113.5 -20.5q65 0 123 19.5t103 48.5l73 253h-247l6 22h269l-82 -287q-51 -33 -116 -54.5t-131 -21.5z" />
    <glyph glyph-name="H" unicode="H" horiz-adv-x="753" 
d="M225 700h22l-91 -337h500l91 337h22l-188 -700h-22l92 343h-500l-92 -343h-22z" />
    <glyph glyph-name="I" unicode="I" horiz-adv-x="244" 
d="M231 700h22l-188 -700h-22z" />
    <glyph glyph-name="J" unicode="J" horiz-adv-x="524" 
d="M182 -11q-39 0 -70 12.5t-54.5 34t-39 49.5t-23.5 60l20 6q7 -29 21 -54.5t35 -45t48.5 -31t62.5 -11.5q81 0 136 55q27 27 46 65.5t34 93.5l128 477h22l-130 -483q-15 -56 -35 -96t-49 -69q-63 -63 -152 -63z" />
    <glyph glyph-name="K" unicode="K" horiz-adv-x="705" 
d="M225 700h22l-127 -474l609 474h33l-383 -296l207 -404h-24l-200 390l-250 -193l-52 -197h-22z" />
    <glyph glyph-name="L" unicode="L" horiz-adv-x="584" 
d="M225 700h22l-183 -680h430l-5 -20h-452z" />
    <glyph glyph-name="M" unicode="M" horiz-adv-x="860" 
d="M225 700h19l188 -433l420 433h24l-188 -700h-22l178 663l-419 -432h-1l-187 432l-178 -663h-22z" />
    <glyph glyph-name="N" unicode="N" horiz-adv-x="782" 
d="M225 700h20l352 -670l180 670h21l-188 -700h-20l-352 670l-180 -670h-21z" />
    <glyph glyph-name="O" unicode="O" horiz-adv-x="838" 
d="M398 8q79 0 147.5 33.5t118.5 89t79 127.5t29 150q0 60 -20.5 111.5t-57 90t-88 60.5t-113.5 22q-79 0 -147.5 -33.5t-118.5 -89t-79 -127.5t-29 -150q0 -60 20 -111.5t57 -90t88.5 -60.5t113.5 -22zM397 -12q-67 0 -122 23.5t-94.5 64.5t-61.5 96.5t-22 118.5
q0 81 31 157t84.5 134.5t126 94t155.5 35.5q67 0 122 -23.5t94.5 -64.5t61.5 -96.5t22 -118.5q0 -81 -31 -157t-84.5 -134.5t-126 -94t-155.5 -35.5z" />
    <glyph glyph-name="P" unicode="P" horiz-adv-x="668" 
d="M352 295q74 0 131 16.5t96 46t59 69t20 85.5q0 70 -41 111q-28 28 -72 42.5t-108 14.5h-196l-103 -385h214zM225 700h213q69 0 116.5 -15.5t79.5 -47.5q46 -46 46 -124q0 -53 -22.5 -97t-65 -75.5t-103.5 -48.5t-138 -17h-218l-74 -275h-22z" />
    <glyph glyph-name="Q" unicode="Q" horiz-adv-x="838" 
d="M398 8q61 0 116 20.5t100 55.5l-129 145l16 13l129 -145q66 57 104 139t38 172q0 60 -20.5 111.5t-57 90t-88 60.5t-113.5 22q-79 0 -147.5 -33.5t-118.5 -89t-79 -127.5t-29 -150q0 -60 20 -111.5t57 -90t88.5 -60.5t113.5 -22zM627 70q-48 -38 -106.5 -60t-123.5 -22
q-67 0 -122 23.5t-94.5 64.5t-61.5 96.5t-22 118.5q0 81 31 157t84.5 134.5t126 94t155.5 35.5q67 0 122 -23.5t94.5 -64.5t61.5 -96.5t22 -118.5q0 -47 -10.5 -92.5t-30.5 -87.5t-48 -79t-62 -67l70 -79l-15 -13z" />
    <glyph glyph-name="R" unicode="R" horiz-adv-x="724" 
d="M410 325q81 0 135 19.5t86 51.5q26 26 38.5 59t12.5 68q0 76 -54.5 116.5t-154.5 40.5h-231l-96 -355h264zM225 700h250q110 0 169.5 -45.5t59.5 -129.5q0 -40 -14 -76.5t-43 -65.5q-33 -33 -87.5 -54t-132.5 -23l159 -306h-24l-158 305h-263l-82 -305h-22z" />
    <glyph glyph-name="S" unicode="S" horiz-adv-x="639" 
d="M303 -10q-42 0 -82.5 9t-76.5 26t-67 41t-54 54l17 13q45 -58 115 -90.5t150 -32.5q55 0 97 15.5t69.5 40t41.5 55.5t14 61q0 36 -15.5 61.5t-41.5 45t-59.5 34t-69.5 28.5q-35 13 -69 28t-60 34.5t-42 46t-16 62.5q0 35 16 69t46.5 60.5t76 42.5t104.5 16
q74 0 134.5 -27t103.5 -74l-16 -14q-40 44 -97 69.5t-127 25.5q-53 0 -93.5 -14.5t-68.5 -37.5t-42.5 -53t-14.5 -61q0 -32 15.5 -55.5t40.5 -41.5t57 -31.5t66 -26.5q36 -14 71 -29.5t62.5 -36.5t44 -50t16.5 -69q0 -35 -15 -69.5t-45.5 -62t-76.5 -45t-109 -17.5z" />
    <glyph glyph-name="T" unicode="T" horiz-adv-x="582" 
d="M389 680h-252l5 20h528l-5 -20h-254l-182 -680h-22z" />
    <glyph glyph-name="U" unicode="U" horiz-adv-x="752" 
d="M344 -11q-51 0 -96 13t-78.5 40.5t-52.5 70t-19 100.5q0 53 18 122l98 365h22l-99 -368q-9 -35 -13 -64t-4 -53q0 -53 17 -91.5t47 -64t71.5 -38t89.5 -12.5q54 0 104.5 19t92.5 61q33 33 60.5 86t49.5 134l105 391h22l-107 -397q-23 -84 -51 -138t-64 -90
q-45 -45 -99 -65.5t-114 -20.5z" />
    <glyph glyph-name="V" unicode="V" horiz-adv-x="714" 
d="M155 700h22l113 -676l478 676h25l-501 -705h-17z" />
    <glyph glyph-name="W" unicode="W" horiz-adv-x="1047" 
d="M160 700h21l52 -676l397 678h18l46 -678l404 676h23l-425 -705h-19l-46 673l-395 -673h-19z" />
    <glyph glyph-name="X" unicode="X" horiz-adv-x="672" 
d="M350 358l-193 342h23l185 -329l340 329h27l-358 -346l199 -354h-23l-191 341l-354 -341h-27z" />
    <glyph glyph-name="Y" unicode="Y" horiz-adv-x="664" 
d="M327 294l-184 406h23l176 -389l386 389h28l-408 -410l-78 -290h-22z" />
    <glyph glyph-name="Z" unicode="Z" horiz-adv-x="668" 
d="M-3 12l683 668h-487l6 20h521l-4 -13l-683 -667h501l-5 -20h-535z" />
    <glyph glyph-name="bracketleft" unicode="[" horiz-adv-x="410" 
d="M228 700h263l-5 -17h-241l-213 -796h241l-5 -17h-263z" />
    <glyph glyph-name="backslash" unicode="\" horiz-adv-x="471" 
d="M158 798h21l222 -926h-21z" />
    <glyph glyph-name="bracketright" unicode="]" horiz-adv-x="410" 
d="M-57 -113h241l213 796h-241l5 17h263l-223 -830h-263z" />
    <glyph glyph-name="asciicircum" unicode="^" 
d="M365 703h12l100 -209h-15l-96 183l-194 -183h-19z" />
    <glyph glyph-name="underscore" unicode="_" horiz-adv-x="548" 
d="M-106 -129h554l-5 -20h-554z" />
    <glyph glyph-name="grave" unicode="`" 
d="M305 707l26 12l63 -124h-12z" />
    <glyph glyph-name="a" unicode="a" horiz-adv-x="566" 
d="M190 7q50 0 92 15.5t75 42.5t55.5 63t33.5 77l12 44q-48 14 -102.5 22t-108.5 8q-91 0 -145 -40t-54 -111q0 -31 13 -53.5t33 -37.5t45.5 -22.5t50.5 -7.5zM186 -12q-30 0 -58.5 9t-51 26.5t-36.5 43t-14 58.5q0 42 16.5 74t46 54.5t71 34t91.5 11.5q54 0 109 -8t103 -23
l6 23q9 33 9 61q0 34 -13 59.5t-37 42.5t-57 25.5t-72 8.5q-41 0 -77.5 -8t-62.5 -17l-6 20q27 10 65.5 17.5t82.5 7.5q43 0 79 -9.5t62 -28.5t41 -48.5t15 -68.5q0 -29 -9 -65l-77 -288h-21l32 119q-15 -27 -37.5 -51t-52 -41.5t-66.5 -28t-81 -10.5z" />
    <glyph glyph-name="b" unicode="b" horiz-adv-x="650" 
d="M311 8q59 0 107.5 26t82.5 67.5t52.5 92.5t18.5 102q0 42 -13.5 77.5t-38.5 62t-59 41.5t-75 15q-62 0 -113.5 -27.5t-88 -68.5t-57 -89.5t-20.5 -90.5q0 -45 14.5 -83t41 -66t64 -43.5t84.5 -15.5zM312 -12q-51 0 -90.5 16.5t-66.5 42.5t-43 58.5t-20 64.5l-46 -170h-21
l196 730h21l-96 -356q10 20 32.5 44t54 45t71 35t83.5 14q46 0 84 -16.5t65.5 -45.5t42.5 -67.5t15 -83.5q0 -56 -20 -111.5t-57 -100t-89 -72t-116 -27.5z" />
    <glyph glyph-name="c" unicode="c" horiz-adv-x="552" 
d="M268 -12q-41 0 -80 14.5t-70.5 42t-50.5 68t-19 91.5q0 62 24 118t64.5 98t94 67t112.5 25q38 0 69.5 -10t56 -26.5t42 -38t29.5 -43.5l-18 -10q-11 21 -27 40.5t-38 34.5t-50.5 24t-64.5 9q-54 0 -103.5 -23t-87 -62.5t-59.5 -91.5t-22 -110q0 -47 17 -84t45 -62
t63.5 -38t73.5 -13q57 0 100.5 22t79.5 54l14 -13q-38 -35 -86.5 -59t-108.5 -24z" />
    <glyph glyph-name="d" unicode="d" horiz-adv-x="650" 
d="M260 8q62 0 113.5 27.5t88 68.5t57 89.5t20.5 90.5q0 45 -14.5 83t-41 66t-64.5 43.5t-84 15.5q-59 0 -107.5 -26t-82.5 -67.5t-52.5 -92.5t-18.5 -102q0 -42 13.5 -77.5t38.5 -62t59 -41.5t75 -15zM259 -12q-46 0 -84 16.5t-65.5 45.5t-42.5 67.5t-15 83.5
q0 56 20 111.5t57 100t89 72t116 27.5q51 0 90.5 -16.5t66.5 -42.5t42.5 -58.5t20.5 -64.5l100 370h21l-188 -700h-21l34 126q-10 -20 -32.5 -44t-54 -45t-71 -35t-83.5 -14z" />
    <glyph glyph-name="e" unicode="e" horiz-adv-x="586" 
d="M505 263q2 14 4 27t2 27q0 33 -9.5 64.5t-30 56t-53.5 39.5t-80 15t-89.5 -18t-77 -49.5t-59 -73t-34.5 -88.5h427zM75 244q-2 -11 -3 -23t-1 -23q0 -88 53.5 -139t147.5 -51q42 0 91 16.5t94 54.5l13 -15q-48 -41 -100 -58.5t-98 -17.5q-51 0 -92 15t-70.5 42t-45 65.5
t-15.5 85.5q0 61 23 118.5t62.5 101t92 70t111.5 26.5q53 0 90 -17t60.5 -44.5t34 -63t10.5 -71.5q-1 -19 -3.5 -37t-7.5 -35h-447z" />
    <glyph glyph-name="f" unicode="f" horiz-adv-x="325" 
d="M175 481h-79l5 19h79l24 88q12 43 29 70.5t37.5 43.5t43 22t45.5 6q26 0 47 -5.5t39 -16.5l-6 -20q-17 11 -38 16t-43 5q-20 0 -39.5 -5.5t-37 -19.5t-32.5 -38t-25 -62l-23 -84h183l-5 -19h-183l-129 -481h-21z" />
    <glyph glyph-name="g" unicode="g" horiz-adv-x="647" 
d="M271 57q61 0 110.5 23.5t84.5 59t54 78t19 81.5q0 37 -14.5 72t-41 62t-64 43t-82.5 16q-57 0 -104 -22.5t-81 -58.5t-53 -82.5t-19 -94.5q0 -38 14.5 -70.5t40.5 -56t60.5 -37t75.5 -13.5zM237 -160q-67 0 -129.5 25t-106.5 68l15 14q40 -41 99.5 -64t123.5 -23
q51 0 94 16t75 48q23 23 41.5 57.5t32.5 88.5l25 94q-17 -27 -41.5 -50t-54.5 -40t-66 -27t-77 -10q-42 0 -80.5 14.5t-67 40t-45.5 61t-17 78.5q0 53 20.5 103.5t57.5 90t88 63.5t113 24q49 0 87.5 -16t65.5 -41.5t43 -57t20 -61.5l44 164h21l-117 -436q-15 -56 -33.5 -91
t-45.5 -62q-71 -71 -185 -71z" />
    <glyph glyph-name="h" unicode="h" horiz-adv-x="605" 
d="M221 730h21l-97 -359q14 27 34.5 52t48.5 45t62.5 32t75.5 12q86 0 128 -45.5t42 -117.5q0 -20 -3.5 -42.5t-9.5 -45.5l-70 -261h-21l70 261q12 45 12 86q0 63 -35.5 104t-114.5 41q-39 0 -76.5 -14.5t-70.5 -42.5t-58.5 -68t-38.5 -91l-74 -276h-21z" />
    <glyph glyph-name="i" unicode="i" horiz-adv-x="220" 
d="M165 500h21l-134 -500h-21zM214 700h31l-16 -57h-31z" />
    <glyph glyph-name="j" unicode="j" horiz-adv-x="220" 
d="M-86 -167q-14 0 -25 2.5t-17 4.5l6 20q5 -2 15.5 -4.5t19.5 -2.5q38 0 63.5 20.5t39.5 71.5l149 555h21l-150 -559q-16 -60 -49 -84t-73 -24zM214 700h31l-16 -57h-31z" />
    <glyph glyph-name="k" unicode="k" horiz-adv-x="543" 
d="M221 730h21l-152 -566l433 336h29l-285 -220l160 -280h-22l-153 268l-169 -129l-37 -139h-21z" />
    <glyph glyph-name="l" unicode="l" horiz-adv-x="219" 
d="M227 730h21l-196 -730h-21z" />
    <glyph glyph-name="m" unicode="m" horiz-adv-x="923" 
d="M159 500h21l-35 -129q13 25 31.5 50.5t43 45.5t55 32.5t66.5 12.5q72 0 112 -42t40 -114q15 29 36 57t47 50t58 35.5t68 13.5q74 0 113 -43t39 -110q0 -19 -4 -44t-12 -54l-70 -261h-21l70 261q7 26 11 50.5t4 46.5q0 59 -32 96.5t-100 37.5q-36 0 -70.5 -17.5t-64 -47.5
t-52 -70.5t-34.5 -86.5l-72 -270h-21l70 261q7 26 11 50.5t4 46.5q0 59 -32 96.5t-100 37.5q-36 0 -70.5 -17.5t-64 -47.5t-52 -70.5t-34.5 -86.5l-72 -270h-21z" />
    <glyph glyph-name="n" unicode="n" horiz-adv-x="605" 
d="M159 500h21l-35 -129q14 27 34.5 52t48.5 45t62.5 32t75.5 12q86 0 128 -45.5t42 -117.5q0 -20 -3.5 -42.5t-9.5 -45.5l-70 -261h-21l70 261q12 45 12 86q0 63 -35.5 104t-114.5 41q-39 0 -76.5 -14.5t-70.5 -42.5t-58.5 -68t-38.5 -91l-74 -276h-21z" />
    <glyph glyph-name="o" unicode="o" horiz-adv-x="621" 
d="M279 8q60 0 109.5 24.5t85.5 63.5t56 89t20 101q0 43 -15 81t-42 65.5t-65.5 43.5t-85.5 16q-60 0 -109.5 -24.5t-85.5 -63.5t-56 -89t-20 -101q0 -44 15 -81.5t42 -65t65.5 -43.5t85.5 -16zM278 -12q-50 0 -92 17t-72.5 46.5t-47.5 70.5t-17 89q0 55 21.5 108.5t60 96.5
t92.5 69.5t120 26.5q50 0 92 -17t72.5 -46.5t47.5 -70.5t17 -89q0 -55 -21.5 -109t-60 -96.5t-92.5 -69t-120 -26.5z" />
    <glyph glyph-name="p" unicode="p" horiz-adv-x="650" 
d="M311 8q59 0 107.5 26t82.5 67.5t52.5 92.5t18.5 102q0 42 -13.5 77.5t-38.5 62t-59 41.5t-75 15q-62 0 -113.5 -27.5t-88 -68.5t-57 -89.5t-20.5 -90.5q0 -45 14.5 -83t41 -66t64 -43.5t84.5 -15.5zM159 500h21l-34 -126q10 20 32.5 44t54 45t71 35t83.5 14
q46 0 84 -16.5t65.5 -45.5t42.5 -67.5t15 -83.5q0 -56 -20 -111.5t-57 -100t-89 -72t-116 -27.5q-51 0 -90.5 16.5t-66.5 42.5t-43 58.5t-20 64.5l-89 -330h-21z" />
    <glyph glyph-name="q" unicode="q" horiz-adv-x="650" 
d="M260 8q62 0 113.5 27.5t88 68.5t57 89.5t20.5 90.5q0 45 -14.5 83t-41 66t-64.5 43.5t-84 15.5q-59 0 -107.5 -26t-82.5 -67.5t-52.5 -92.5t-18.5 -102q0 -42 13.5 -77.5t38.5 -62t59 -41.5t75 -15zM500 126q-10 -20 -32.5 -44t-54 -45t-71 -35t-83.5 -14q-46 0 -84 16.5
t-65.5 45.5t-42.5 67.5t-15 83.5q0 56 20 111.5t57 100t89 72t116 27.5q51 0 90.5 -16.5t66.5 -42.5t42.5 -58.5t20.5 -64.5l46 170h21l-177 -660h-21z" />
    <glyph glyph-name="r" unicode="r" horiz-adv-x="340" 
d="M159 500h21l-42 -156q24 40 54.5 71.5t63.5 53t67 32.5t66 11l-5 -20h-2q-33 0 -74.5 -18.5t-80 -50.5t-69.5 -75.5t-44 -93.5l-68 -254h-21z" />
    <glyph glyph-name="s" unicode="s" horiz-adv-x="490" 
d="M209 -9q-55 0 -110.5 20.5t-95.5 59.5l14 15q83 -75 193 -75q40 0 70.5 10.5t51 27t31 36.5t10.5 40q0 24 -9 41.5t-26 31t-42 25t-56 23.5q-29 11 -54.5 23.5t-45 27.5t-30.5 34t-11 44t12 49.5t35 43t56.5 30t76.5 11.5q18 0 40.5 -3.5t46.5 -11.5t47 -20.5t43 -29.5
l-14 -15q-38 32 -82 46t-82 14t-67.5 -10t-49.5 -25.5t-30 -35.5t-10 -41q0 -23 10.5 -39.5t28.5 -29.5t42 -23.5t51 -21.5q30 -12 56 -24.5t45 -28t30 -35.5t11 -48q0 -24 -12.5 -48.5t-36 -44t-58 -31.5t-79.5 -12z" />
    <glyph glyph-name="t" unicode="t" horiz-adv-x="372" 
d="M190 -9q-55 0 -82.5 23.5t-27.5 68.5q0 21 8 51l93 347h-79l5 19h79l46 173h21l-46 -173h185l-5 -19h-185l-93 -347q-8 -29 -8 -49q0 -74 91 -74q18 0 35 3.5t37 11.5l-6 -23q-17 -7 -32.5 -9.5t-35.5 -2.5z" />
    <glyph glyph-name="u" unicode="u" horiz-adv-x="605" 
d="M239 -12q-86 0 -128 45.5t-42 117.5q0 20 3.5 42.5t9.5 45.5l70 261h21l-70 -261q-12 -45 -12 -86q0 -32 8.5 -58.5t26.5 -45.5t46.5 -30t68.5 -11q39 0 76.5 14.5t70.5 42.5t58 68t39 91l74 276h21l-134 -500h-21l35 129q-14 -27 -34.5 -52t-48.5 -45t-62.5 -32
t-75.5 -12z" />
    <glyph glyph-name="v" unicode="v" horiz-adv-x="560" 
d="M104 500h22l85 -476l340 476h24l-363 -504h-14z" />
    <glyph glyph-name="w" unicode="w" horiz-adv-x="805" 
d="M109 500h21l37 -471l289 474h18l33 -474l285 471h23l-307 -504h-18l-34 472l-287 -472h-18z" />
    <glyph glyph-name="x" unicode="x" horiz-adv-x="525" 
d="M252 257l-139 243h23l131 -231l254 231h27l-272 -247l145 -253h-23l-137 241l-264 -241h-27z" />
    <glyph glyph-name="y" unicode="y" horiz-adv-x="573" 
d="M30 -163q-34 0 -58 8t-38 19l11 16q17 -11 37.5 -18t47.5 -7q18 0 37 5t40.5 20.5t47.5 43t58 72.5l-111 504h22l104 -485l338 485h24l-355 -505q-37 -53 -65.5 -84t-52.5 -47.5t-45 -21.5t-42 -5z" />
    <glyph glyph-name="z" unicode="z" horiz-adv-x="487" 
d="M-29 12l506 470h-368l5 18h400l-3 -12l-506 -470h382l-5 -18h-414z" />
    <glyph glyph-name="braceleft" unicode="{" horiz-adv-x="440" 
d="M287 -141q-75 20 -111 58.5t-36 104.5q0 34 6 61.5t14 55.5q7 23 11 42t4 36q0 22 -19 40.5t-70 18.5h-30l6 20h30q35 0 61.5 9t46 30t33.5 55.5t24 84.5t24.5 92t41.5 73.5t71.5 50.5t115.5 23l-2 -21q-65 -5 -105.5 -22.5t-64.5 -46.5t-37 -68t-22 -85
q-10 -50 -23 -84.5t-31 -56t-41 -32t-53 -13.5q36 -7 52 -26t16 -44q0 -16 -4 -34.5t-12 -44.5q-8 -28 -14 -55.5t-6 -56.5q0 -59 31 -93.5t100 -52.5z" />
    <glyph glyph-name="bar" unicode="|" horiz-adv-x="257" 
d="M142 798h19v-926h-19v926z" />
    <glyph glyph-name="braceright" unicode="}" horiz-adv-x="440" 
d="M-51 -119q65 4 105.5 22t64.5 47t37 68t22 85q10 50 23 84.5t31 56t41 32t53 13.5q-36 7 -52 26t-16 44q0 16 4 35t12 44q8 28 14 55.5t6 56.5q0 59 -31 93.5t-100 52.5l7 19q75 -20 111 -58.5t36 -104.5q0 -34 -6 -61.5t-14 -55.5q-6 -23 -10.5 -42t-4.5 -36
q0 -22 19 -40.5t70 -18.5h30l-6 -20h-30q-35 0 -61.5 -9t-46 -30t-33.5 -55.5t-24 -84.5t-24.5 -92t-41.5 -73.5t-72 -50.5t-115 -23z" />
    <glyph glyph-name="asciitilde" unicode="~" horiz-adv-x="440" 
d="M88 258q18 45 39 64.5t45 19.5q17 0 33.5 -11.5t30.5 -25.5t27.5 -23.5t26.5 -9.5q18 0 35 15.5t35 53.5l12 -5q-17 -45 -38.5 -64.5t-45.5 -19.5q-17 0 -33.5 11.5t-30.5 25.5t-27.5 23.5t-26.5 9.5q-18 0 -34.5 -15.5t-35.5 -53.5z" />
    <glyph glyph-name="Adieresis" unicode="&#xc4;" horiz-adv-x="767" 
d="M461 836h36l-14 -52h-36zM599 836h36l-14 -52h-36zM597 230l-92 447l-334 -447h426zM501 705h19l145 -705h-21l-43 210h-445l-156 -210h-25z" />
    <glyph glyph-name="Aring" unicode="&#xc5;" horiz-adv-x="767" 
d="M597 230l-92 447l-334 -447h426zM519 696q16 0 31.5 6.5t27.5 17.5t19.5 26.5t7.5 33.5q0 31 -19.5 49.5t-52.5 18.5q-16 0 -31.5 -6.5t-27.5 -17.5t-19.5 -26.5t-7.5 -33.5q0 -31 19.5 -49.5t52.5 -18.5zM486 685q-26 8 -41.5 28.5t-15.5 49.5q0 22 9 40.5t24 32
t33.5 21t38.5 7.5q40 0 64.5 -23t24.5 -60q0 -21 -8.5 -38.5t-22 -31t-31 -22t-36.5 -9.5l140 -680h-21l-43 210h-445l-156 -210h-25z" />
    <glyph glyph-name="Ccedilla" unicode="&#xc7;" horiz-adv-x="726" 
d="M259 -141l-19 11l108 119q-53 3 -99 24t-81 57t-55 86.5t-20 112.5q0 86 32 166t88.5 141.5t132.5 98.5t164 37q87 0 152.5 -41t97.5 -111l-19 -8q-29 61 -88 100.5t-143 39.5t-156 -35t-125.5 -94t-83.5 -135.5t-30 -158.5q0 -61 20 -109.5t55 -82t82 -51.5t100 -18
q45 0 83 9t70.5 25t60 36.5t50.5 44.5l14 -14q-24 -24 -53 -46t-63.5 -38.5t-75.5 -26.5t-88 -10h-7z" />
    <glyph glyph-name="Eacute" unicode="&#xc9;" horiz-adv-x="661" 
d="M558 889l24 -12l-137 -112h-16zM225 700h489l-6 -20h-466l-86 -318h424l-5 -20h-424l-87 -322h472l-5 -20h-494z" />
    <glyph glyph-name="Ntilde" unicode="&#xd1;" horiz-adv-x="782" 
d="M383 776q18 45 39 64.5t45 19.5q17 0 33.5 -11.5t30.5 -25.5t27.5 -23.5t26.5 -9.5q18 0 35 15.5t35 53.5l12 -5q-17 -45 -38.5 -64.5t-45.5 -19.5q-17 0 -33.5 11.5t-30.5 25.5t-27.5 23.5t-26.5 9.5q-18 0 -34.5 -15.5t-35.5 -53.5zM225 700h20l352 -670l180 670h21
l-188 -700h-20l-352 670l-180 -670h-21z" />
    <glyph glyph-name="Odieresis" unicode="&#xd6;" horiz-adv-x="838" 
d="M465 836h36l-14 -52h-36zM603 836h36l-14 -52h-36zM398 8q79 0 147.5 33.5t118.5 89t79 127.5t29 150q0 60 -20.5 111.5t-57 90t-88 60.5t-113.5 22q-79 0 -147.5 -33.5t-118.5 -89t-79 -127.5t-29 -150q0 -60 20 -111.5t57 -90t88.5 -60.5t113.5 -22zM397 -12
q-67 0 -122 23.5t-94.5 64.5t-61.5 96.5t-22 118.5q0 81 31 157t84.5 134.5t126 94t155.5 35.5q67 0 122 -23.5t94.5 -64.5t61.5 -96.5t22 -118.5q0 -81 -31 -157t-84.5 -134.5t-126 -94t-155.5 -35.5z" />
    <glyph glyph-name="Udieresis" unicode="&#xdc;" horiz-adv-x="752" 
d="M435 826h36l-14 -52h-36zM573 826h36l-14 -52h-36zM344 -11q-51 0 -96 13t-78.5 40.5t-52.5 70t-19 100.5q0 53 18 122l98 365h22l-99 -368q-9 -35 -13 -64t-4 -53q0 -53 17 -91.5t47 -64t71.5 -38t89.5 -12.5q54 0 104.5 19t92.5 61q33 33 60.5 86t49.5 134l105 391h22
l-107 -397q-23 -84 -51 -138t-64 -90q-45 -45 -99 -65.5t-114 -20.5z" />
    <glyph glyph-name="aacute" unicode="&#xe1;" horiz-adv-x="566" 
d="M440 719l24 -12l-137 -112h-16zM190 7q50 0 92 15.5t75 42.5t55.5 63t33.5 77l12 44q-48 14 -102.5 22t-108.5 8q-91 0 -145 -40t-54 -111q0 -31 13 -53.5t33 -37.5t45.5 -22.5t50.5 -7.5zM186 -12q-30 0 -58.5 9t-51 26.5t-36.5 43t-14 58.5q0 42 16.5 74t46 54.5t71 34
t91.5 11.5q54 0 109 -8t103 -23l6 23q9 33 9 61q0 34 -13 59.5t-37 42.5t-57 25.5t-72 8.5q-41 0 -77.5 -8t-62.5 -17l-6 20q27 10 65.5 17.5t82.5 7.5q43 0 79 -9.5t62 -28.5t41 -48.5t15 -68.5q0 -29 -9 -65l-77 -288h-21l32 119q-15 -27 -37.5 -51t-52 -41.5t-66.5 -28
t-81 -10.5z" />
    <glyph glyph-name="agrave" unicode="&#xe0;" horiz-adv-x="566" 
d="M298 707l26 12l63 -124h-12zM190 7q50 0 92 15.5t75 42.5t55.5 63t33.5 77l12 44q-48 14 -102.5 22t-108.5 8q-91 0 -145 -40t-54 -111q0 -31 13 -53.5t33 -37.5t45.5 -22.5t50.5 -7.5zM186 -12q-30 0 -58.5 9t-51 26.5t-36.5 43t-14 58.5q0 42 16.5 74t46 54.5t71 34
t91.5 11.5q54 0 109 -8t103 -23l6 23q9 33 9 61q0 34 -13 59.5t-37 42.5t-57 25.5t-72 8.5q-41 0 -77.5 -8t-62.5 -17l-6 20q27 10 65.5 17.5t82.5 7.5q43 0 79 -9.5t62 -28.5t41 -48.5t15 -68.5q0 -29 -9 -65l-77 -288h-21l32 119q-15 -27 -37.5 -51t-52 -41.5t-66.5 -28
t-81 -10.5z" />
    <glyph glyph-name="acircumflex" unicode="&#xe2;" horiz-adv-x="566" 
d="M393 717h12l73 -122h-15l-69 96l-120 -96h-20zM190 7q50 0 92 15.5t75 42.5t55.5 63t33.5 77l12 44q-48 14 -102.5 22t-108.5 8q-91 0 -145 -40t-54 -111q0 -31 13 -53.5t33 -37.5t45.5 -22.5t50.5 -7.5zM186 -12q-30 0 -58.5 9t-51 26.5t-36.5 43t-14 58.5q0 42 16.5 74
t46 54.5t71 34t91.5 11.5q54 0 109 -8t103 -23l6 23q9 33 9 61q0 34 -13 59.5t-37 42.5t-57 25.5t-72 8.5q-41 0 -77.5 -8t-62.5 -17l-6 20q27 10 65.5 17.5t82.5 7.5q43 0 79 -9.5t62 -28.5t41 -48.5t15 -68.5q0 -29 -9 -65l-77 -288h-21l32 119q-15 -27 -37.5 -51
t-52 -41.5t-66.5 -28t-81 -10.5z" />
    <glyph glyph-name="adieresis" unicode="&#xe4;" horiz-adv-x="566" 
d="M294 666h36l-14 -52h-36zM432 666h36l-14 -52h-36zM190 7q50 0 92 15.5t75 42.5t55.5 63t33.5 77l12 44q-48 14 -102.5 22t-108.5 8q-91 0 -145 -40t-54 -111q0 -31 13 -53.5t33 -37.5t45.5 -22.5t50.5 -7.5zM186 -12q-30 0 -58.5 9t-51 26.5t-36.5 43t-14 58.5
q0 42 16.5 74t46 54.5t71 34t91.5 11.5q54 0 109 -8t103 -23l6 23q9 33 9 61q0 34 -13 59.5t-37 42.5t-57 25.5t-72 8.5q-41 0 -77.5 -8t-62.5 -17l-6 20q27 10 65.5 17.5t82.5 7.5q43 0 79 -9.5t62 -28.5t41 -48.5t15 -68.5q0 -29 -9 -65l-77 -288h-21l32 119
q-15 -27 -37.5 -51t-52 -41.5t-66.5 -28t-81 -10.5z" />
    <glyph glyph-name="atilde" unicode="&#xe3;" horiz-adv-x="566" 
d="M234 606q18 45 39 64.5t45 19.5q17 0 33.5 -11.5t30.5 -25.5t27.5 -23.5t26.5 -9.5q18 0 35 15.5t35 53.5l12 -5q-17 -45 -38.5 -64.5t-45.5 -19.5q-17 0 -33.5 11.5t-30.5 25.5t-27.5 23.5t-26.5 9.5q-18 0 -34.5 -15.5t-35.5 -53.5zM190 7q50 0 92 15.5t75 42.5
t55.5 63t33.5 77l12 44q-48 14 -102.5 22t-108.5 8q-91 0 -145 -40t-54 -111q0 -31 13 -53.5t33 -37.5t45.5 -22.5t50.5 -7.5zM186 -12q-30 0 -58.5 9t-51 26.5t-36.5 43t-14 58.5q0 42 16.5 74t46 54.5t71 34t91.5 11.5q54 0 109 -8t103 -23l6 23q9 33 9 61q0 34 -13 59.5
t-37 42.5t-57 25.5t-72 8.5q-41 0 -77.5 -8t-62.5 -17l-6 20q27 10 65.5 17.5t82.5 7.5q43 0 79 -9.5t62 -28.5t41 -48.5t15 -68.5q0 -29 -9 -65l-77 -288h-21l32 119q-15 -27 -37.5 -51t-52 -41.5t-66.5 -28t-81 -10.5z" />
    <glyph glyph-name="aring" unicode="&#xe5;" horiz-adv-x="566" 
d="M380 611q16 0 31.5 6.5t27.5 17.5t19.5 26.5t7.5 33.5q0 31 -19.5 49.5t-52.5 18.5q-16 0 -31.5 -6.5t-27.5 -17.5t-19.5 -26.5t-7.5 -33.5q0 -31 19.5 -49.5t52.5 -18.5zM379 595q-40 0 -64.5 23t-24.5 60q0 22 9 40.5t24 32t33.5 21t38.5 7.5q40 0 64.5 -23t24.5 -60
q0 -22 -9 -40.5t-24 -32t-34 -21t-38 -7.5zM190 7q50 0 92 15.5t75 42.5t55.5 63t33.5 77l12 44q-48 14 -102.5 22t-108.5 8q-91 0 -145 -40t-54 -111q0 -31 13 -53.5t33 -37.5t45.5 -22.5t50.5 -7.5zM186 -12q-30 0 -58.5 9t-51 26.5t-36.5 43t-14 58.5q0 42 16.5 74
t46 54.5t71 34t91.5 11.5q54 0 109 -8t103 -23l6 23q9 33 9 61q0 34 -13 59.5t-37 42.5t-57 25.5t-72 8.5q-41 0 -77.5 -8t-62.5 -17l-6 20q27 10 65.5 17.5t82.5 7.5q43 0 79 -9.5t62 -28.5t41 -48.5t15 -68.5q0 -29 -9 -65l-77 -288h-21l32 119q-15 -27 -37.5 -51
t-52 -41.5t-66.5 -28t-81 -10.5z" />
    <glyph glyph-name="ccedilla" unicode="&#xe7;" horiz-adv-x="552" 
d="M240 -10q-37 4 -71.5 20.5t-61.5 44t-43 65t-16 84.5q0 62 24 118t64.5 98t94 67t112.5 25q38 0 69.5 -10t56 -26.5t42 -38t29.5 -43.5l-18 -10q-11 21 -27 40.5t-38 34.5t-50.5 24t-64.5 9q-54 0 -103.5 -23t-87 -62.5t-59.5 -91.5t-22 -110q0 -47 17 -84t45 -62
t63.5 -38t73.5 -13q57 0 100.5 22t79.5 54l14 -13q-38 -35 -86.5 -59t-108.5 -24h-13l-105 -129l-19 11z" />
    <glyph glyph-name="eacute" unicode="&#xe9;" horiz-adv-x="586" 
d="M455 719l24 -12l-137 -112h-16zM505 263q2 14 4 27t2 27q0 33 -9.5 64.5t-30 56t-53.5 39.5t-80 15t-89.5 -18t-77 -49.5t-59 -73t-34.5 -88.5h427zM75 244q-2 -11 -3 -23t-1 -23q0 -88 53.5 -139t147.5 -51q42 0 91 16.5t94 54.5l13 -15q-48 -41 -100 -58.5t-98 -17.5
q-51 0 -92 15t-70.5 42t-45 65.5t-15.5 85.5q0 61 23 118.5t62.5 101t92 70t111.5 26.5q53 0 90 -17t60.5 -44.5t34 -63t10.5 -71.5q-1 -19 -3.5 -37t-7.5 -35h-447z" />
    <glyph glyph-name="egrave" unicode="&#xe8;" horiz-adv-x="586" 
d="M303 707l26 12l63 -124h-12zM505 263q2 14 4 27t2 27q0 33 -9.5 64.5t-30 56t-53.5 39.5t-80 15t-89.5 -18t-77 -49.5t-59 -73t-34.5 -88.5h427zM75 244q-2 -11 -3 -23t-1 -23q0 -88 53.5 -139t147.5 -51q42 0 91 16.5t94 54.5l13 -15q-48 -41 -100 -58.5t-98 -17.5
q-51 0 -92 15t-70.5 42t-45 65.5t-15.5 85.5q0 61 23 118.5t62.5 101t92 70t111.5 26.5q53 0 90 -17t60.5 -44.5t34 -63t10.5 -71.5q-1 -19 -3.5 -37t-7.5 -35h-447z" />
    <glyph glyph-name="ecircumflex" unicode="&#xea;" horiz-adv-x="586" 
d="M389 717h12l73 -122h-15l-69 96l-120 -96h-20zM505 263q2 14 4 27t2 27q0 33 -9.5 64.5t-30 56t-53.5 39.5t-80 15t-89.5 -18t-77 -49.5t-59 -73t-34.5 -88.5h427zM75 244q-2 -11 -3 -23t-1 -23q0 -88 53.5 -139t147.5 -51q42 0 91 16.5t94 54.5l13 -15
q-48 -41 -100 -58.5t-98 -17.5q-51 0 -92 15t-70.5 42t-45 65.5t-15.5 85.5q0 61 23 118.5t62.5 101t92 70t111.5 26.5q53 0 90 -17t60.5 -44.5t34 -63t10.5 -71.5q-1 -19 -3.5 -37t-7.5 -35h-447z" />
    <glyph glyph-name="edieresis" unicode="&#xeb;" horiz-adv-x="586" 
d="M298 666h36l-14 -52h-36zM436 666h36l-14 -52h-36zM505 263q2 14 4 27t2 27q0 33 -9.5 64.5t-30 56t-53.5 39.5t-80 15t-89.5 -18t-77 -49.5t-59 -73t-34.5 -88.5h427zM75 244q-2 -11 -3 -23t-1 -23q0 -88 53.5 -139t147.5 -51q42 0 91 16.5t94 54.5l13 -15
q-48 -41 -100 -58.5t-98 -17.5q-51 0 -92 15t-70.5 42t-45 65.5t-15.5 85.5q0 61 23 118.5t62.5 101t92 70t111.5 26.5q53 0 90 -17t60.5 -44.5t34 -63t10.5 -71.5q-1 -19 -3.5 -37t-7.5 -35h-447z" />
    <glyph glyph-name="iacute" unicode="&#xed;" horiz-adv-x="220" 
d="M310 719l24 -12l-137 -112h-16zM165 500h21l-134 -500h-21z" />
    <glyph glyph-name="igrave" unicode="&#xec;" horiz-adv-x="220" 
d="M103 707l26 12l63 -124h-12zM165 500h21l-134 -500h-21z" />
    <glyph glyph-name="icircumflex" unicode="&#xee;" horiz-adv-x="220" 
d="M221 717h12l73 -122h-15l-69 96l-120 -96h-20zM165 500h21l-134 -500h-21z" />
    <glyph glyph-name="idieresis" unicode="&#xef;" horiz-adv-x="220" 
d="M129 666h36l-14 -52h-36zM267 666h36l-14 -52h-36zM165 500h21l-134 -500h-21z" />
    <glyph glyph-name="ntilde" unicode="&#xf1;" horiz-adv-x="605" 
d="M249 606q18 45 39 64.5t45 19.5q17 0 33.5 -11.5t30.5 -25.5t27.5 -23.5t26.5 -9.5q18 0 35 15.5t35 53.5l12 -5q-17 -45 -38.5 -64.5t-45.5 -19.5q-17 0 -33.5 11.5t-30.5 25.5t-27.5 23.5t-26.5 9.5q-18 0 -34.5 -15.5t-35.5 -53.5zM159 500h21l-35 -129q14 27 34.5 52
t48.5 45t62.5 32t75.5 12q86 0 128 -45.5t42 -117.5q0 -20 -3.5 -42.5t-9.5 -45.5l-70 -261h-21l70 261q12 45 12 86q0 63 -35.5 104t-114.5 41q-39 0 -76.5 -14.5t-70.5 -42.5t-58.5 -68t-38.5 -91l-74 -276h-21z" />
    <glyph glyph-name="oacute" unicode="&#xf3;" horiz-adv-x="621" 
d="M464 719l24 -12l-137 -112h-16zM279 8q60 0 109.5 24.5t85.5 63.5t56 89t20 101q0 43 -15 81t-42 65.5t-65.5 43.5t-85.5 16q-60 0 -109.5 -24.5t-85.5 -63.5t-56 -89t-20 -101q0 -44 15 -81.5t42 -65t65.5 -43.5t85.5 -16zM278 -12q-50 0 -92 17t-72.5 46.5t-47.5 70.5
t-17 89q0 55 21.5 108.5t60 96.5t92.5 69.5t120 26.5q50 0 92 -17t72.5 -46.5t47.5 -70.5t17 -89q0 -55 -21.5 -109t-60 -96.5t-92.5 -69t-120 -26.5z" />
    <glyph glyph-name="ograve" unicode="&#xf2;" horiz-adv-x="621" 
d="M311 707l26 12l63 -124h-12zM279 8q60 0 109.5 24.5t85.5 63.5t56 89t20 101q0 43 -15 81t-42 65.5t-65.5 43.5t-85.5 16q-60 0 -109.5 -24.5t-85.5 -63.5t-56 -89t-20 -101q0 -44 15 -81.5t42 -65t65.5 -43.5t85.5 -16zM278 -12q-50 0 -92 17t-72.5 46.5t-47.5 70.5
t-17 89q0 55 21.5 108.5t60 96.5t92.5 69.5t120 26.5q50 0 92 -17t72.5 -46.5t47.5 -70.5t17 -89q0 -55 -21.5 -109t-60 -96.5t-92.5 -69t-120 -26.5z" />
    <glyph glyph-name="ocircumflex" unicode="&#xf4;" horiz-adv-x="621" 
d="M421 717h12l73 -122h-15l-69 96l-120 -96h-20zM279 8q60 0 109.5 24.5t85.5 63.5t56 89t20 101q0 43 -15 81t-42 65.5t-65.5 43.5t-85.5 16q-60 0 -109.5 -24.5t-85.5 -63.5t-56 -89t-20 -101q0 -44 15 -81.5t42 -65t65.5 -43.5t85.5 -16zM278 -12q-50 0 -92 17
t-72.5 46.5t-47.5 70.5t-17 89q0 55 21.5 108.5t60 96.5t92.5 69.5t120 26.5q50 0 92 -17t72.5 -46.5t47.5 -70.5t17 -89q0 -55 -21.5 -109t-60 -96.5t-92.5 -69t-120 -26.5z" />
    <glyph glyph-name="odieresis" unicode="&#xf6;" horiz-adv-x="621" 
d="M312 666h36l-14 -52h-36zM450 666h36l-14 -52h-36zM279 8q60 0 109.5 24.5t85.5 63.5t56 89t20 101q0 43 -15 81t-42 65.5t-65.5 43.5t-85.5 16q-60 0 -109.5 -24.5t-85.5 -63.5t-56 -89t-20 -101q0 -44 15 -81.5t42 -65t65.5 -43.5t85.5 -16zM278 -12q-50 0 -92 17
t-72.5 46.5t-47.5 70.5t-17 89q0 55 21.5 108.5t60 96.5t92.5 69.5t120 26.5q50 0 92 -17t72.5 -46.5t47.5 -70.5t17 -89q0 -55 -21.5 -109t-60 -96.5t-92.5 -69t-120 -26.5z" />
    <glyph glyph-name="otilde" unicode="&#xf5;" horiz-adv-x="621" 
d="M265 606q18 45 39 64.5t45 19.5q17 0 33.5 -11.5t30.5 -25.5t27.5 -23.5t26.5 -9.5q18 0 35 15.5t35 53.5l12 -5q-17 -45 -38.5 -64.5t-45.5 -19.5q-17 0 -33.5 11.5t-30.5 25.5t-27.5 23.5t-26.5 9.5q-18 0 -34.5 -15.5t-35.5 -53.5zM279 8q60 0 109.5 24.5t85.5 63.5
t56 89t20 101q0 43 -15 81t-42 65.5t-65.5 43.5t-85.5 16q-60 0 -109.5 -24.5t-85.5 -63.5t-56 -89t-20 -101q0 -44 15 -81.5t42 -65t65.5 -43.5t85.5 -16zM278 -12q-50 0 -92 17t-72.5 46.5t-47.5 70.5t-17 89q0 55 21.5 108.5t60 96.5t92.5 69.5t120 26.5q50 0 92 -17
t72.5 -46.5t47.5 -70.5t17 -89q0 -55 -21.5 -109t-60 -96.5t-92.5 -69t-120 -26.5z" />
    <glyph glyph-name="uacute" unicode="&#xfa;" horiz-adv-x="605" 
d="M479 719l24 -12l-137 -112h-16zM239 -12q-86 0 -128 45.5t-42 117.5q0 20 3.5 42.5t9.5 45.5l70 261h21l-70 -261q-12 -45 -12 -86q0 -32 8.5 -58.5t26.5 -45.5t46.5 -30t68.5 -11q39 0 76.5 14.5t70.5 42.5t58 68t39 91l74 276h21l-134 -500h-21l35 129
q-14 -27 -34.5 -52t-48.5 -45t-62.5 -32t-75.5 -12z" />
    <glyph glyph-name="ugrave" unicode="&#xf9;" horiz-adv-x="605" 
d="M304 707l26 12l63 -124h-12zM239 -12q-86 0 -128 45.5t-42 117.5q0 20 3.5 42.5t9.5 45.5l70 261h21l-70 -261q-12 -45 -12 -86q0 -32 8.5 -58.5t26.5 -45.5t46.5 -30t68.5 -11q39 0 76.5 14.5t70.5 42.5t58 68t39 91l74 276h21l-134 -500h-21l35 129q-14 -27 -34.5 -52
t-48.5 -45t-62.5 -32t-75.5 -12z" />
    <glyph glyph-name="ucircumflex" unicode="&#xfb;" horiz-adv-x="605" 
d="M413 717h12l73 -122h-15l-69 96l-120 -96h-20zM239 -12q-86 0 -128 45.5t-42 117.5q0 20 3.5 42.5t9.5 45.5l70 261h21l-70 -261q-12 -45 -12 -86q0 -32 8.5 -58.5t26.5 -45.5t46.5 -30t68.5 -11q39 0 76.5 14.5t70.5 42.5t58 68t39 91l74 276h21l-134 -500h-21l35 129
q-14 -27 -34.5 -52t-48.5 -45t-62.5 -32t-75.5 -12z" />
    <glyph glyph-name="udieresis" unicode="&#xfc;" horiz-adv-x="605" 
d="M316 661h36l-14 -52h-36zM454 661h36l-14 -52h-36zM239 -12q-86 0 -128 45.5t-42 117.5q0 20 3.5 42.5t9.5 45.5l70 261h21l-70 -261q-12 -45 -12 -86q0 -32 8.5 -58.5t26.5 -45.5t46.5 -30t68.5 -11q39 0 76.5 14.5t70.5 42.5t58 68t39 91l74 276h21l-134 -500h-21
l35 129q-14 -27 -34.5 -52t-48.5 -45t-62.5 -32t-75.5 -12z" />
    <glyph glyph-name="dagger" unicode="&#x2020;" horiz-adv-x="388" 
d="M262 535l-126 -6l6 22l123 -6l37 155h22l-47 -155l127 6l-6 -22l-124 6l-73 -297h-24z" />
    <glyph glyph-name="degree" unicode="&#xb0;" horiz-adv-x="430" 
d="M246 434q30 0 55.5 13t44 34t29.5 48t11 56q0 43 -27.5 72t-72.5 29q-29 0 -54.5 -12.5t-44.5 -33.5t-29.5 -48t-10.5 -56q0 -44 27 -73t72 -29zM246 415q-27 0 -49 9.5t-38 25.5t-25 38t-9 48q0 33 12.5 63.5t34.5 54t51.5 37.5t62.5 14q27 0 49 -9.5t38 -25.5t25 -38
t9 -47q0 -33 -12.5 -63.5t-34.5 -54.5t-51.5 -38t-62.5 -14z" />
    <glyph glyph-name="cent" unicode="&#xa2;" horiz-adv-x="561" 
d="M411 595q-7 1 -16 1.5t-18 0.5q-54 0 -103.5 -23.5t-87 -63t-59.5 -91.5t-22 -110q0 -71 35 -117t86 -66zM219 108q-28 11 -53 29t-43.5 43.5t-29 57.5t-10.5 70q0 62 24 118t65 98t94 67t112 25q22 0 40 -3l37 93h20l-39 -97q53 -13 86 -44.5t53 -66.5l-18 -10
q-19 34 -49 63t-78 40l-187 -471q28 -9 61 -9q59 0 102.5 22t78.5 55l13 -13q-36 -35 -83.5 -59t-111.5 -24q-36 0 -67 10l-43 -108h-19z" />
    <glyph glyph-name="sterling" unicode="&#xa3;" horiz-adv-x="599" 
d="M-6 13l94 8l79 298h-91l6 20h91l35 128q16 59 38.5 104t52.5 75q32 32 70 48t79 16q62 0 107 -32t69 -82l-19 -10q-23 46 -61.5 75t-97.5 29q-75 0 -131 -56q-55 -55 -87 -173l-33 -122h302l-6 -20h-302l-80 -299h375l-5 -20h-488z" />
    <glyph glyph-name="section" unicode="&#xa7;" horiz-adv-x="610" 
d="M384 232q41 0 71.5 8t51 21.5t30.5 31t10 35.5q0 16 -6.5 31t-23.5 29.5t-46 29t-75 29.5q-31 11 -62.5 16t-54.5 5q-41 0 -72 -8t-51 -21.5t-30 -31t-10 -35.5q0 -17 6.5 -31.5t23.5 -29t46 -29t75 -29.5q31 -11 62.5 -16t54.5 -5zM287 -10q-36 0 -68.5 7t-60.5 18
t-51 25.5t-39 29.5l16 15q32 -29 83.5 -52t120.5 -23q64 0 102.5 26.5t38.5 68.5q0 25 -14 43.5t-37.5 33.5t-53.5 27t-61 23q-32 11 -62.5 23.5t-54 28.5t-38 37t-14.5 49q0 25 13.5 48t40.5 39t67 23.5t93 3.5q-45 20 -70.5 47t-25.5 63q0 50 45 83t119 33q36 0 68.5 -7
t60.5 -18t51 -25.5t39 -29.5l-16 -15q-32 29 -83.5 52t-120.5 23q-64 0 -102.5 -26.5t-38.5 -68.5q0 -25 14 -43.5t37.5 -33.5t53 -27t61.5 -23t62.5 -23.5t54 -28.5t38 -37t14.5 -49q0 -26 -13.5 -48.5t-40.5 -38.5t-67 -23.5t-93 -3.5q45 -20 70.5 -47t25.5 -63
q0 -50 -45 -83t-119 -33z" />
    <glyph glyph-name="bullet" unicode="&#x2022;" horiz-adv-x="431" 
d="M225 243q-38 0 -63 24.5t-25 66.5q0 25 9.5 48.5t26 40.5t38.5 27.5t46 10.5q38 0 63 -24.5t25 -66.5q0 -26 -9.5 -49t-26 -40t-38.5 -27.5t-46 -10.5z" />
    <glyph glyph-name="paragraph" unicode="&#xb6;" horiz-adv-x="458" 
d="M338 277q-60 0 -102.5 14.5t-70 39t-40.5 58.5t-13 73q0 55 22 99.5t63 75t99 47t130 16.5h48l-188 -700h-22z" />
    <glyph glyph-name="germandbls" unicode="&#xdf;" horiz-adv-x="571" 
d="M204 18q62 0 113 13.5t87.5 37.5t56.5 58t20 74q0 69 -49.5 106.5t-137.5 54.5l5 17q51 9 94 24t74.5 39t49.5 58t18 80q0 28 -9.5 53t-28 43.5t-45.5 29.5t-62 11q-38 0 -70.5 -15.5t-59 -43t-46.5 -65.5t-32 -83l-136 -510h-21l138 515q15 55 36 93t49 66t63.5 45
t77.5 17q37 0 68 -11.5t53.5 -32t35 -49.5t12.5 -63q0 -47 -18 -82.5t-48.5 -61t-70 -42t-81.5 -25.5q31 -8 60.5 -21t52.5 -33t36.5 -48t13.5 -66q0 -44 -21.5 -81.5t-61.5 -65t-96 -42.5t-125 -14z" />
    <glyph glyph-name="registered" unicode="&#xae;" horiz-adv-x="829" 
d="M460 350q54 0 84.5 23.5t30.5 65.5q0 41 -30 63.5t-84 22.5h-130v-175h129zM311 543h152q62 0 96.5 -27.5t34.5 -75.5t-30.5 -74t-81.5 -32l121 -157h-24l-119 155h-129v-155h-20v366zM441 5q71 0 134 27t109.5 74t73.5 110t27 134t-27 134t-73.5 110t-109.5 74t-134 27
t-134 -27t-109.5 -74t-73.5 -110t-27 -134t27 -134t73.5 -110t109.5 -74t134 -27zM441 -12q-75 0 -141 28.5t-115 77.5t-77.5 115t-28.5 141t28.5 141t77.5 115t115 77.5t141 28.5t141 -28.5t115 -77.5t77.5 -115t28.5 -141t-28.5 -141t-77.5 -115t-115 -77.5t-141 -28.5z
" />
    <glyph glyph-name="copyright" unicode="&#xa9;" horiz-adv-x="829" 
d="M448 164q-39 0 -72.5 15t-57.5 40.5t-37.5 60t-13.5 74.5q0 39 13.5 74t37.5 61t57.5 41t73.5 15q53 0 85 -18t56 -41l-14 -14q-21 21 -51 38t-77 17q-35 0 -64.5 -13.5t-51 -37t-33.5 -55t-12 -66.5q0 -36 12 -67.5t34 -55t51.5 -37t64.5 -13.5q46 0 76 17.5t53 41.5
l14 -13q-24 -26 -57.5 -45t-86.5 -19zM441 5q71 0 134 27t109.5 74t73.5 110t27 134t-27 134t-73.5 110t-109.5 74t-134 27t-134 -27t-109.5 -74t-73.5 -110t-27 -134t27 -134t73.5 -110t109.5 -74t134 -27zM441 -12q-75 0 -141 28.5t-115 77.5t-77.5 115t-28.5 141
t28.5 141t77.5 115t115 77.5t141 28.5t141 -28.5t115 -77.5t77.5 -115t28.5 -141t-28.5 -141t-77.5 -115t-115 -77.5t-141 -28.5z" />
    <glyph glyph-name="trademark" unicode="&#x2122;" horiz-adv-x="656" 
d="M232 685h-110l4 15h235l-4 -15h-110l-84 -293h-15zM429 700h12l76 -187l183 187h16l-88 -308h-15l80 279l-182 -183h-1l-74 183l-80 -279h-15z" />
    <glyph glyph-name="acute" unicode="&#xb4;" 
d="M397 719l24 -12l-137 -112h-16z" />
    <glyph glyph-name="dieresis" unicode="&#xa8;" 
d="M273 666h36l-14 -52h-36zM411 666h36l-14 -52h-36z" />
    <glyph glyph-name="AE" unicode="&#xc6;" horiz-adv-x="1023" 
d="M476 230l121 450h-11l-409 -450h299zM578 700h498l-6 -20h-451l-86 -318h409l-5 -20h-409l-87 -322h457l-5 -20h-479l56 210h-311l-191 -210h-26z" />
    <glyph glyph-name="Oslash" unicode="&#xd8;" horiz-adv-x="838" 
d="M396 8q79 0 147.5 33.5t118.5 89t79 127.5t29 150q0 93 -46 165l-550 -461q37 -48 93.5 -76t128.5 -28zM714 588q-37 48 -94 76t-129 28q-79 0 -147.5 -33.5t-118.5 -89t-79 -127.5t-29 -150q0 -94 46 -165zM395 -12q-76 0 -136.5 30t-100.5 81l-124 -104h-28l142 119
q-26 37 -39.5 82t-13.5 95q0 81 31 157t84.5 134.5t126 94t155.5 35.5q76 0 136.5 -30t100.5 -82l125 105h28l-143 -119q26 -37 39.5 -82t13.5 -95q0 -81 -31 -157t-84.5 -134.5t-126 -94t-155.5 -35.5z" />
    <glyph glyph-name="plusminus" unicode="&#xb1;" horiz-adv-x="568" 
d="M239 -12q-35 0 -70 7.5t-67 22.5t-59 38t-46 53l19 11q18 -29 44 -50.5t55.5 -35t61.5 -20t63 -6.5q55 0 98 15.5t72.5 41t45 57.5t15.5 66q0 36 -14 65t-39 49t-60 31t-76 11h-78l5 20h79q51 0 97.5 13t81 37t55 57.5t20.5 74.5q0 32 -14 59t-39 46.5t-60 30t-76 10.5
q-60 0 -111 -22t-91 -58l-14 16q43 39 99 61.5t117 22.5q48 0 86.5 -12.5t66.5 -35t43 -52.5t15 -65q0 -44 -18 -77.5t-48 -57.5t-69 -38.5t-81 -20.5q71 -15 108 -60t37 -104q0 -39 -17.5 -75.5t-50.5 -64t-80 -44.5t-106 -17z" />
    <glyph glyph-name="yen" unicode="&#xa5;" horiz-adv-x="687" 
d="M294 120h-207l6 20h206l41 150h-206l6 20h194l-174 390h23l174 -388l378 388h28l-381 -390h191l-6 -20h-205l-40 -150h204l-6 -20h-204l-32 -120h-22z" />
    <glyph glyph-name="mu" unicode="&#xb5;" horiz-adv-x="838" 
d="M398 8q61 0 116 20.5t100 55.5l-129 145l16 13l129 -145q66 57 104 139t38 172q0 60 -20.5 111.5t-57 90t-88 60.5t-113.5 22q-79 0 -147.5 -33.5t-118.5 -89t-79 -127.5t-29 -150q0 -60 20 -111.5t57 -90t88.5 -60.5t113.5 -22zM627 70q-48 -38 -106.5 -60t-123.5 -22
q-67 0 -122 23.5t-94.5 64.5t-61.5 96.5t-22 118.5q0 81 31 157t84.5 134.5t126 94t155.5 35.5q67 0 122 -23.5t94.5 -64.5t61.5 -96.5t22 -118.5q0 -47 -10.5 -92.5t-30.5 -87.5t-48 -79t-62 -67l70 -79l-15 -13z" />
    <glyph glyph-name="mu" unicode="&#x3bc;" horiz-adv-x="838" 
d="M398 8q61 0 116 20.5t100 55.5l-129 145l16 13l129 -145q66 57 104 139t38 172q0 60 -20.5 111.5t-57 90t-88 60.5t-113.5 22q-79 0 -147.5 -33.5t-118.5 -89t-79 -127.5t-29 -150q0 -60 20 -111.5t57 -90t88.5 -60.5t113.5 -22zM627 70q-48 -38 -106.5 -60t-123.5 -22
q-67 0 -122 23.5t-94.5 64.5t-61.5 96.5t-22 118.5q0 81 31 157t84.5 134.5t126 94t155.5 35.5q67 0 122 -23.5t94.5 -64.5t61.5 -96.5t22 -118.5q0 -47 -10.5 -92.5t-30.5 -87.5t-48 -79t-62 -67l70 -79l-15 -13z" />
    <glyph glyph-name="pi" unicode="&#x3c0;" horiz-adv-x="829" 
d="M462 322q57 0 90.5 25.5t33.5 70.5q0 46 -33 70.5t-88 24.5h-111v-191h108zM335 531h131q64 0 101.5 -29t37.5 -82q0 -28 -11 -49.5t-30 -36.5t-45 -22.5t-57 -7.5h-108v-139h-19v366zM441 5q71 0 134 27t109.5 74t73.5 110t27 134t-27 134t-73.5 110t-109.5 74t-134 27
t-134 -27t-109.5 -74t-73.5 -110t-27 -134t27 -134t73.5 -110t109.5 -74t134 -27zM441 -12q-75 0 -141 28.5t-115 77.5t-77.5 115t-28.5 141t28.5 141t77.5 115t115 77.5t141 28.5t141 -28.5t115 -77.5t77.5 -115t28.5 -141t-28.5 -141t-77.5 -115t-115 -77.5t-141 -28.5z
" />
    <glyph glyph-name="ordfeminine" unicode="&#xaa;" horiz-adv-x="420" 
d="M234 431q51 0 87.5 28.5t49.5 73.5l6 22q-54 17 -113 17q-48 0 -75 -21t-27 -59q0 -32 21.5 -46.5t50.5 -14.5zM92 333h247l-4 -15h-247zM231 414q-17 0 -32.5 5t-28.5 14.5t-20.5 24t-7.5 32.5q0 46 34.5 72t90.5 26q30 0 59 -4.5t55 -12.5l3 11q4 15 4 31
q0 38 -25.5 55t-69.5 17q-22 0 -41.5 -4.5t-36.5 -9.5l-3 16q17 6 38 10.5t46 4.5q48 0 79.5 -22t31.5 -65q0 -14 -5 -36l-43 -159h-18l16 62q-18 -29 -49 -48.5t-77 -19.5z" />
    <glyph glyph-name="ordmasculine" unicode="&#xba;" horiz-adv-x="420" 
d="M271 432q30 0 56.5 12.5t46 33.5t31 47.5t11.5 54.5q0 48 -29 77.5t-76 29.5q-30 0 -56.5 -12.5t-46 -33.5t-31 -47.5t-11.5 -54.5q0 -48 29 -77.5t76 -29.5zM92 333h277l-4 -15h-277zM269 414q-27 0 -49.5 9t-39 25.5t-25.5 39.5t-9 50q0 31 12.5 61.5t35 53.5t53 37.5
t66.5 14.5q27 0 49.5 -9.5t39 -26t25.5 -39t9 -49.5q0 -32 -12.5 -62t-35 -53t-53 -37.5t-66.5 -14.5z" />
    <glyph glyph-name="Omega" unicode="&#x3a9;" horiz-adv-x="650" 
d="M175 481h-79l5 19h79l24 88q12 43 29 70.5t37.5 43.5t43 22t45.5 6q26 0 47 -5.5t39 -16.5l-6 -20q-17 11 -38 16t-43 5q-20 0 -39.5 -5.5t-37 -19.5t-32.5 -38t-25 -62l-23 -84h183l-5 -19h-183l-129 -481h-21zM500 481h-79l5 19h79l24 88q12 43 29 70.5t37.5 43.5
t43 22t45.5 6q26 0 47 -5.5t39 -16.5l-6 -20q-17 11 -38 16t-43 5q-20 0 -39.5 -5.5t-37 -19.5t-32.5 -38t-25 -62l-23 -84h183l-5 -19h-183l-129 -481h-21z" />
    <glyph glyph-name="Omega" unicode="&#x2126;" horiz-adv-x="650" 
d="M175 481h-79l5 19h79l24 88q12 43 29 70.5t37.5 43.5t43 22t45.5 6q26 0 47 -5.5t39 -16.5l-6 -20q-17 11 -38 16t-43 5q-20 0 -39.5 -5.5t-37 -19.5t-32.5 -38t-25 -62l-23 -84h183l-5 -19h-183l-129 -481h-21zM500 481h-79l5 19h79l24 88q12 43 29 70.5t37.5 43.5
t43 22t45.5 6q26 0 47 -5.5t39 -16.5l-6 -20q-17 11 -38 16t-43 5q-20 0 -39.5 -5.5t-37 -19.5t-32.5 -38t-25 -62l-23 -84h183l-5 -19h-183l-129 -481h-21z" />
    <glyph glyph-name="ae" unicode="&#xe6;" horiz-adv-x="988" 
d="M457 249q-48 14 -102 22t-108 8q-91 0 -145 -40t-54 -111q0 -31 13 -53.5t33.5 -37.5t47 -22.5t53.5 -7.5q74 0 144.5 37.5t117.5 104.5q-4 20 -4 47q0 14 1 27t3 26zM907 263q2 14 4 27t2 27q0 33 -9.5 64.5t-30 56t-53.5 39.5t-80 15t-89.5 -18t-77 -49.5t-59 -73
t-34.5 -88.5h427zM462 128q-54 -69 -122.5 -104.5t-146.5 -35.5q-32 0 -62.5 9t-53.5 26.5t-37 43t-14 58.5q0 42 16.5 74t46 54.5t71 34t91.5 11.5q54 0 109 -8t103 -23l6 23q9 33 9 61q0 34 -13 59.5t-37 42.5t-57 25.5t-72 8.5q-41 0 -77.5 -8t-62.5 -17l-6 20
q27 10 65.5 17.5t82.5 7.5q43 0 78.5 -9.5t61.5 -28.5t40.5 -48t14.5 -68q18 34 44.5 63t58 50t67.5 33t74 12q53 0 90 -17t60.5 -44.5t34 -63t10.5 -71.5t-11 -72h-447q-2 -11 -3 -23t-1 -23q0 -88 53.5 -139t147.5 -51q42 0 91 16.5t94 54.5l13 -15q-48 -41 -100 -58.5
t-98 -17.5q-83 0 -137.5 37t-74.5 103z" />
    <glyph glyph-name="oslash" unicode="&#xf8;" horiz-adv-x="621" 
d="M279 8q60 0 109.5 24.5t85.5 63.5t56 89t20 101q0 34 -8.5 64.5t-25.5 56.5l-399 -328q27 -34 68.5 -52.5t93.5 -18.5zM506 420q-28 34 -69.5 53t-94.5 19q-60 0 -109.5 -24.5t-85.5 -63.5t-56 -89t-20 -101q0 -70 35 -122zM278 -12q-56 0 -101 20.5t-76 56.5l-86 -70
h-27l102 84q-20 27 -30.5 60.5t-10.5 71.5q0 55 21.5 108.5t60 96.5t92.5 69.5t120 26.5q57 0 102.5 -21t76.5 -58l101 84h27l-118 -97q40 -55 40 -131q0 -55 -21.5 -109t-60 -96.5t-92.5 -69t-120 -26.5z" />
    <glyph glyph-name="questiondown" unicode="&#xbf;" horiz-adv-x="501" 
d="M227 -9q-48 0 -84.5 13.5t-62 36.5t-38.5 53.5t-13 65.5q0 49 22 86.5t59 63.5t86 42t103 23l46 142h10l-35 -157l-3 -3q-53 -5 -101 -18.5t-84.5 -37.5t-58.5 -59t-22 -81q0 -31 11.5 -58.5t34 -47.5t55.5 -32t76 -12q69 0 121 28.5t90 66.5l14 -14q-41 -41 -96.5 -71
t-129.5 -30zM381 700h36l-14 -52h-36z" />
    <glyph glyph-name="exclamdown" unicode="&#xa1;" horiz-adv-x="194" 
d="M48 108l116 409h10l-104 -409l-29 -108h-22zM200 700h36l-14 -52h-36z" />
    <glyph glyph-name="radical" unicode="&#x221a;" horiz-adv-x="869" 
d="M175 481h-79l5 19h79l24 88q12 43 29 70.5t37.5 43.5t43 22t45.5 6q26 0 47 -5.5t39 -16.5l-6 -20q-17 11 -38 16t-43 5q-20 0 -39.5 -5.5t-37 -19.5t-32.5 -38t-25 -62l-23 -84h183l-5 -19h-183l-129 -481h-21zM500 481h-79l5 19h79l24 88q12 43 29 70.5t37.5 43.5
t43 22t45.5 6q26 0 47 -5.5t39 -16.5l-6 -20q-17 11 -38 16t-43 5q-20 0 -39.5 -5.5t-37 -19.5t-32.5 -38t-25 -62l-23 -84h183l-5 -19h-183l-129 -481h-21zM877 730h21l-196 -730h-21z" />
    <glyph glyph-name="florin" unicode="&#x192;" horiz-adv-x="449" 
d="M-1 -4q-15 0 -22 1t-18 3l5 20q8 -2 15.5 -3t20.5 -1q37 0 68.5 24t61.5 92l117 268h-111l5 20h115l63 144q19 43 39 70t41.5 42.5t43 21.5t43.5 6q15 0 27.5 -2t28.5 -7l-6 -20q-14 5 -27.5 6.5t-24.5 1.5q-20 0 -39 -5t-37.5 -19t-36.5 -39t-36 -66l-58 -134h157
l-5 -20h-161l-119 -273q-18 -39 -35 -64.5t-35.5 -40t-38 -20.5t-41.5 -6z" />
    <glyph glyph-name="approxequal" unicode="&#x2248;" horiz-adv-x="870" 
d="M815 500h21l-134 -500h-21zM175 481h-79l5 19h79l24 88q12 43 29 70.5t37.5 43.5t43 22t45.5 6q26 0 47 -5.5t39 -16.5l-6 -20q-17 11 -38 16t-43 5q-20 0 -39.5 -5.5t-37 -19.5t-32.5 -38t-25 -62l-23 -84h183l-5 -19h-183l-129 -481h-21zM500 481h-79l5 19h79l24 88
q12 43 29 70.5t37.5 43.5t43 22t45.5 6q26 0 47 -5.5t39 -16.5l-6 -20q-17 11 -38 16t-43 5q-20 0 -39.5 -5.5t-37 -19.5t-32.5 -38t-25 -62l-23 -84h183l-5 -19h-183l-129 -481h-21zM864 700h31l-16 -57h-31z" />
    <glyph glyph-name="guillemotleft" unicode="&#xab;" horiz-adv-x="462" 
d="M42 252l1 6l229 203l12 -10l-218 -199l110 -197l-14 -8zM212 252l1 6l229 203l12 -10l-218 -199l110 -197l-14 -8z" />
    <glyph glyph-name="guillemotright" unicode="&#xbb;" horiz-adv-x="462" 
d="M7 57l218 199l-110 197l14 8l120 -205l-1 -6l-229 -203zM177 57l218 199l-110 197l14 8l120 -205l-1 -6l-229 -203z" />
    <glyph glyph-name="ellipsis" unicode="&#x2026;" horiz-adv-x="484" 
d="M11 52h36l-14 -52h-36zM171 52h36l-14 -52h-36zM331 52h36l-14 -52h-36z" />
    <glyph glyph-name="nonbreakingspace" unicode="&#xa0;" horiz-adv-x="280" 
 />
    <glyph glyph-name="Agrave" unicode="&#xc0;" horiz-adv-x="767" 
d="M458 877l26 12l63 -124h-12zM597 230l-92 447l-334 -447h426zM501 705h19l145 -705h-21l-43 210h-445l-156 -210h-25z" />
    <glyph glyph-name="Atilde" unicode="&#xc3;" horiz-adv-x="767" 
d="M395 776q18 45 39 64.5t45 19.5q17 0 33.5 -11.5t30.5 -25.5t27.5 -23.5t26.5 -9.5q18 0 35 15.5t35 53.5l12 -5q-17 -45 -38.5 -64.5t-45.5 -19.5q-17 0 -33.5 11.5t-30.5 25.5t-27.5 23.5t-26.5 9.5q-18 0 -34.5 -15.5t-35.5 -53.5zM597 230l-92 447l-334 -447h426z
M501 705h19l145 -705h-21l-43 210h-445l-156 -210h-25z" />
    <glyph glyph-name="Otilde" unicode="&#xd5;" horiz-adv-x="838" 
d="M394 776q18 45 39 64.5t45 19.5q17 0 33.5 -11.5t30.5 -25.5t27.5 -23.5t26.5 -9.5q18 0 35 15.5t35 53.5l12 -5q-17 -45 -38.5 -64.5t-45.5 -19.5q-17 0 -33.5 11.5t-30.5 25.5t-27.5 23.5t-26.5 9.5q-18 0 -34.5 -15.5t-35.5 -53.5zM398 8q79 0 147.5 33.5t118.5 89
t79 127.5t29 150q0 60 -20.5 111.5t-57 90t-88 60.5t-113.5 22q-79 0 -147.5 -33.5t-118.5 -89t-79 -127.5t-29 -150q0 -60 20 -111.5t57 -90t88.5 -60.5t113.5 -22zM397 -12q-67 0 -122 23.5t-94.5 64.5t-61.5 96.5t-22 118.5q0 81 31 157t84.5 134.5t126 94t155.5 35.5
q67 0 122 -23.5t94.5 -64.5t61.5 -96.5t22 -118.5q0 -81 -31 -157t-84.5 -134.5t-126 -94t-155.5 -35.5z" />
    <glyph glyph-name="OE" unicode="&#x152;" horiz-adv-x="1165" 
d="M562 20l177 660h-183q-105 0 -191 -32.5t-146 -92.5q-50 -50 -77 -117t-27 -143q0 -60 19 -106t52 -79q45 -45 111.5 -67.5t147.5 -22.5h117zM451 0q-88 0 -161 24t-121 72q-36 36 -56 85.5t-20 112.5q0 81 28.5 151.5t81.5 123.5q63 63 154.5 97t202.5 34h658l-6 -20
h-451l-86 -318h409l-5 -20h-409l-87 -322h457l-5 -20h-584z" />
    <glyph glyph-name="oe" unicode="&#x153;" horiz-adv-x="1077" 
d="M274 8q60 0 110.5 24.5t87 63.5t57.5 89t21 101q0 43 -15 81t-42 65.5t-65.5 43.5t-85.5 16q-60 0 -109.5 -24.5t-85.5 -63.5t-56 -89t-20 -101q0 -44 14 -81.5t40.5 -65t64 -43.5t84.5 -16zM996 263q2 14 4 27t2 27q0 33 -9.5 64.5t-30 56t-53.5 39.5t-80 15t-89.5 -18
t-77 -49.5t-59 -73t-34.5 -88.5h427zM566 244q-2 -11 -3 -23t-1 -23q0 -88 53.5 -139t147.5 -51q42 0 91 16.5t94 54.5l13 -15q-48 -41 -100 -58.5t-98 -17.5q-96 0 -153.5 49.5t-65.5 133.5q-16 -38 -42.5 -71.5t-61.5 -58t-77 -39t-90 -14.5q-50 0 -91 17t-70.5 46.5
t-46 70.5t-16.5 89q0 55 21.5 108.5t60 96.5t92.5 69.5t120 26.5q46 0 85 -14t68 -39.5t47.5 -61t23.5 -77.5q17 41 43.5 76t60.5 61t74 40.5t84 14.5q53 0 90 -17t60.5 -44.5t34 -63t10.5 -71.5q-1 -19 -3.5 -37t-7.5 -35h-447z" />
    <glyph glyph-name="endash" unicode="&#x2013;" horiz-adv-x="538" 
d="M83 307h398l-5 -20h-398z" />
    <glyph glyph-name="emdash" unicode="&#x2014;" horiz-adv-x="894" 
d="M83 307h754l-5 -20h-754z" />
    <glyph glyph-name="quotedblleft" unicode="&#x201c;" horiz-adv-x="254" 
d="M159 616q11 43 25 61.5t35 23.5l4 -12q-18 -5 -27.5 -22.5t-16.5 -44.5h18l-14 -52h-36zM249 616q11 43 25 61.5t35 23.5l4 -12q-18 -5 -27.5 -22.5t-16.5 -44.5h18l-14 -52h-36z" />
    <glyph glyph-name="quotedblright" unicode="&#x201d;" horiz-adv-x="254" 
d="M144 581q18 5 27.5 22.5t16.5 44.5h-18l14 52h36l-12 -46q-11 -43 -25 -61.5t-35 -23.5zM234 581q18 5 27.5 22.5t16.5 44.5h-18l14 52h36l-12 -46q-11 -43 -25 -61.5t-35 -23.5z" />
    <glyph glyph-name="quoteleft" unicode="&#x2018;" horiz-adv-x="164" 
d="M159 616q11 43 25 61.5t35 23.5l4 -12q-18 -5 -27.5 -22.5t-16.5 -44.5h18l-14 -52h-36z" />
    <glyph glyph-name="quoteright" unicode="&#x2019;" horiz-adv-x="164" 
d="M144 581q18 5 27.5 22.5t16.5 44.5h-18l14 52h36l-12 -46q-11 -43 -25 -61.5t-35 -23.5z" />
    <glyph glyph-name="ydieresis" unicode="&#xff;" horiz-adv-x="573" 
d="M295 661h36l-14 -52h-36zM433 661h36l-14 -52h-36zM30 -163q-34 0 -58 8t-38 19l11 16q17 -11 37.5 -18t47.5 -7q18 0 37 5t40.5 20.5t47.5 43t58 72.5l-111 504h22l104 -485l338 485h24l-355 -505q-37 -53 -65.5 -84t-52.5 -47.5t-45 -21.5t-42 -5z" />
    <glyph glyph-name="Ydieresis" unicode="&#x178;" horiz-adv-x="664" 
d="M385 826h36l-14 -52h-36zM523 826h36l-14 -52h-36zM327 294l-184 406h23l176 -389l386 389h28l-408 -410l-78 -290h-22z" />
    <glyph glyph-name="fraction" unicode="&#x2044;" horiz-adv-x="423" 
d="M570 759h23l-700 -857h-23z" />
    <glyph glyph-name="fraction" unicode="&#x2215;" horiz-adv-x="423" 
d="M570 759h23l-700 -857h-23z" />
    <glyph glyph-name="currency" unicode="&#xa4;" horiz-adv-x="710" 
d="M385 -12q-51 0 -94 19t-74.5 54t-49 85.5t-17.5 113.5h-95l5 20h90q2 39 8 77t17 73h-75l5 20h77q20 56 51.5 104t73 83t91 55t105.5 20q43 0 78.5 -13t63 -34.5t46.5 -50.5t29 -60l-20 -8q-9 29 -26.5 55.5t-42.5 46.5t-57.5 32t-71.5 12q-53 0 -98.5 -18.5t-83.5 -50.5
t-67.5 -76.5t-48.5 -96.5h330l-5 -20h-332q-23 -72 -26 -150h318l-5 -20h-313q0 -57 16 -103.5t44.5 -79.5t68 -51t86.5 -18q60 0 111.5 25t102.5 84l16 -14q-51 -61 -109.5 -88t-121.5 -27z" />
    <glyph glyph-name="guilsinglleft" unicode="&#x2039;" horiz-adv-x="292" 
d="M42 252l1 6l229 203l12 -10l-218 -199l110 -197l-14 -8z" />
    <glyph glyph-name="guilsinglright" unicode="&#x203a;" horiz-adv-x="292" 
d="M7 57l218 199l-110 197l14 8l120 -205l-1 -6l-229 -203z" />
    <glyph glyph-name="daggerdbl" unicode="&#x2021;" horiz-adv-x="388" 
d="M161 155l-127 -6l6 22l123 -6l45 185l54 185l-126 -6l6 22l123 -6l37 155h22l-47 -155l127 6l-6 -22l-124 6l-44 -185l-55 -185l127 6l-6 -22l-123 6l-37 -155h-22z" />
    <glyph glyph-name="periodcentered" unicode="&#xb7;" horiz-adv-x="164" 
d="M82 318h36l-14 -52h-36z" />
    <glyph glyph-name="periodcentered" unicode="&#x2219;" horiz-adv-x="164" 
d="M82 318h36l-14 -52h-36z" />
    <glyph glyph-name="quotesinglbase" unicode="&#x201a;" horiz-adv-x="164" 
d="M-29 -67q18 5 27.5 22.5t16.5 44.5h-18l14 52h36l-12 -46q-11 -43 -25 -61.5t-35 -23.5z" />
    <glyph glyph-name="quotedblbase" unicode="&#x201e;" horiz-adv-x="254" 
d="M-29 -67q18 5 27.5 22.5t16.5 44.5h-18l14 52h36l-12 -46q-11 -43 -25 -61.5t-35 -23.5zM61 -67q18 5 27.5 22.5t16.5 44.5h-18l14 52h36l-12 -46q-11 -43 -25 -61.5t-35 -23.5z" />
    <glyph glyph-name="perthousand" unicode="&#x2030;" horiz-adv-x="1207" 
d="M585 12q34 0 64 16.5t52 43.5t34.5 62t12.5 71q0 27 -8 51t-23 41t-36 27t-46 10q-34 0 -64 -16.5t-52 -43.5t-34.5 -62t-12.5 -71q0 -27 8 -51t23 -41t35.5 -27t46.5 -10zM969 12q34 0 64 16.5t52 43.5t34.5 62t12.5 71q0 27 -8 51t-23 41t-36 27t-46 10
q-34 0 -64 -16.5t-52 -43.5t-34.5 -62t-12.5 -71q0 -27 8 -51t23 -41t35.5 -27t46.5 -10zM239 366q34 0 64 16.5t52 43.5t34.5 62t12.5 71q0 27 -8 51t-23 41t-36 27t-46 10q-34 0 -64 -16.5t-52 -43.5t-34.5 -62t-12.5 -71q0 -27 8 -51t23 -41t35.5 -27t46.5 -10zM584 -8
q-30 0 -54.5 11t-42.5 31t-27.5 47t-9.5 59q0 40 14.5 78.5t40 68.5t59.5 48.5t72 18.5q30 0 54.5 -11t42.5 -31t27.5 -47t9.5 -59q0 -41 -14.5 -79.5t-40 -68.5t-59.5 -48t-72 -18zM968 -8q-30 0 -54.5 11t-42.5 31t-27.5 47t-9.5 59q0 40 14.5 78.5t40 68.5t59.5 48.5
t72 18.5q30 0 54.5 -11t42.5 -31t27.5 -47t9.5 -59q0 -41 -14.5 -79.5t-40 -68.5t-59.5 -48t-72 -18zM773 700h26l-698 -700h-26zM238 346q-30 0 -54.5 11t-42.5 31t-27.5 47t-9.5 59q0 40 14.5 78.5t40 68.5t59.5 48.5t72 18.5q30 0 54.5 -11t42.5 -31t27.5 -47t9.5 -59
q0 -41 -14.5 -79.5t-40 -68.5t-59.5 -48t-72 -18z" />
    <glyph glyph-name="Acircumflex" unicode="&#xc2;" horiz-adv-x="767" 
d="M549 887h12l73 -122h-15l-69 96l-120 -96h-20zM597 230l-92 447l-334 -447h426zM501 705h19l145 -705h-21l-43 210h-445l-156 -210h-25z" />
    <glyph glyph-name="Ecircumflex" unicode="&#xca;" horiz-adv-x="661" 
d="M502 887h12l73 -122h-15l-69 96l-120 -96h-20zM225 700h489l-6 -20h-466l-86 -318h424l-5 -20h-424l-87 -322h472l-5 -20h-494z" />
    <glyph glyph-name="Aacute" unicode="&#xc1;" horiz-adv-x="767" 
d="M634 889l24 -12l-137 -112h-16zM597 230l-92 447l-334 -447h426zM501 705h19l145 -705h-21l-43 210h-445l-156 -210h-25z" />
    <glyph glyph-name="Edieresis" unicode="&#xcb;" horiz-adv-x="661" 
d="M413 836h36l-14 -52h-36zM551 836h36l-14 -52h-36zM225 700h489l-6 -20h-466l-86 -318h424l-5 -20h-424l-87 -322h472l-5 -20h-494z" />
    <glyph glyph-name="Egrave" unicode="&#xc8;" horiz-adv-x="661" 
d="M419 877l26 12l63 -124h-12zM225 700h489l-6 -20h-466l-86 -318h424l-5 -20h-424l-87 -322h472l-5 -20h-494z" />
    <glyph glyph-name="Iacute" unicode="&#xcd;" horiz-adv-x="244" 
d="M360 889l24 -12l-137 -112h-16zM231 700h22l-188 -700h-22z" />
    <glyph glyph-name="Icircumflex" unicode="&#xce;" horiz-adv-x="244" 
d="M280 887h12l73 -122h-15l-69 96l-120 -96h-20zM231 700h22l-188 -700h-22z" />
    <glyph glyph-name="Idieresis" unicode="&#xcf;" horiz-adv-x="244" 
d="M193 836h36l-14 -52h-36zM331 836h36l-14 -52h-36zM231 700h22l-188 -700h-22z" />
    <glyph glyph-name="Igrave" unicode="&#xcc;" horiz-adv-x="244" 
d="M188 877l26 12l63 -124h-12zM231 700h22l-188 -700h-22z" />
    <glyph glyph-name="Oacute" unicode="&#xd3;" horiz-adv-x="838" 
d="M613 889l24 -12l-137 -112h-16zM398 8q79 0 147.5 33.5t118.5 89t79 127.5t29 150q0 60 -20.5 111.5t-57 90t-88 60.5t-113.5 22q-79 0 -147.5 -33.5t-118.5 -89t-79 -127.5t-29 -150q0 -60 20 -111.5t57 -90t88.5 -60.5t113.5 -22zM397 -12q-67 0 -122 23.5t-94.5 64.5
t-61.5 96.5t-22 118.5q0 81 31 157t84.5 134.5t126 94t155.5 35.5q67 0 122 -23.5t94.5 -64.5t61.5 -96.5t22 -118.5q0 -81 -31 -157t-84.5 -134.5t-126 -94t-155.5 -35.5z" />
    <glyph glyph-name="Ocircumflex" unicode="&#xd4;" horiz-adv-x="838" 
d="M563 887h12l73 -122h-15l-69 96l-120 -96h-20zM398 8q79 0 147.5 33.5t118.5 89t79 127.5t29 150q0 60 -20.5 111.5t-57 90t-88 60.5t-113.5 22q-79 0 -147.5 -33.5t-118.5 -89t-79 -127.5t-29 -150q0 -60 20 -111.5t57 -90t88.5 -60.5t113.5 -22zM397 -12
q-67 0 -122 23.5t-94.5 64.5t-61.5 96.5t-22 118.5q0 81 31 157t84.5 134.5t126 94t155.5 35.5q67 0 122 -23.5t94.5 -64.5t61.5 -96.5t22 -118.5q0 -81 -31 -157t-84.5 -134.5t-126 -94t-155.5 -35.5z" />
    <glyph glyph-name="Ograve" unicode="&#xd2;" horiz-adv-x="838" 
d="M476 877l26 12l63 -124h-12zM398 8q79 0 147.5 33.5t118.5 89t79 127.5t29 150q0 60 -20.5 111.5t-57 90t-88 60.5t-113.5 22q-79 0 -147.5 -33.5t-118.5 -89t-79 -127.5t-29 -150q0 -60 20 -111.5t57 -90t88.5 -60.5t113.5 -22zM397 -12q-67 0 -122 23.5t-94.5 64.5
t-61.5 96.5t-22 118.5q0 81 31 157t84.5 134.5t126 94t155.5 35.5q67 0 122 -23.5t94.5 -64.5t61.5 -96.5t22 -118.5q0 -81 -31 -157t-84.5 -134.5t-126 -94t-155.5 -35.5z" />
    <glyph glyph-name="Uacute" unicode="&#xda;" horiz-adv-x="752" 
d="M591 889l24 -12l-137 -112h-16zM344 -11q-51 0 -96 13t-78.5 40.5t-52.5 70t-19 100.5q0 53 18 122l98 365h22l-99 -368q-9 -35 -13 -64t-4 -53q0 -53 17 -91.5t47 -64t71.5 -38t89.5 -12.5q54 0 104.5 19t92.5 61q33 33 60.5 86t49.5 134l105 391h22l-107 -397
q-23 -84 -51 -138t-64 -90q-45 -45 -99 -65.5t-114 -20.5z" />
    <glyph glyph-name="Ucircumflex" unicode="&#xdb;" horiz-adv-x="752" 
d="M533 887h12l73 -122h-15l-69 96l-120 -96h-20zM344 -11q-51 0 -96 13t-78.5 40.5t-52.5 70t-19 100.5q0 53 18 122l98 365h22l-99 -368q-9 -35 -13 -64t-4 -53q0 -53 17 -91.5t47 -64t71.5 -38t89.5 -12.5q54 0 104.5 19t92.5 61q33 33 60.5 86t49.5 134l105 391h22
l-107 -397q-23 -84 -51 -138t-64 -90q-45 -45 -99 -65.5t-114 -20.5z" />
    <glyph glyph-name="Ugrave" unicode="&#xd9;" horiz-adv-x="752" 
d="M434 877l26 12l63 -124h-12zM344 -11q-51 0 -96 13t-78.5 40.5t-52.5 70t-19 100.5q0 53 18 122l98 365h22l-99 -368q-9 -35 -13 -64t-4 -53q0 -53 17 -91.5t47 -64t71.5 -38t89.5 -12.5q54 0 104.5 19t92.5 61q33 33 60.5 86t49.5 134l105 391h22l-107 -397
q-23 -84 -51 -138t-64 -90q-45 -45 -99 -65.5t-114 -20.5z" />
    <glyph glyph-name="dotlessi" unicode="&#x131;" horiz-adv-x="220" 
d="M165 500h21l-134 -500h-21z" />
    <glyph glyph-name="circumflex" unicode="&#x2c6;" 
d="M369 717h12l73 -122h-15l-69 96l-120 -96h-20z" />
    <glyph glyph-name="tilde" unicode="&#x2dc;" 
d="M211 606q18 45 39 64.5t45 19.5q17 0 33.5 -11.5t30.5 -25.5t27.5 -23.5t26.5 -9.5q18 0 35 15.5t35 53.5l12 -5q-17 -45 -38.5 -64.5t-45.5 -19.5q-17 0 -33.5 11.5t-30.5 25.5t-27.5 23.5t-26.5 9.5q-18 0 -34.5 -15.5t-35.5 -53.5z" />
    <glyph glyph-name="macron" unicode="&#xaf;" 
d="M218 640h270l-5 -19h-270z" />
    <glyph glyph-name="macron" unicode="&#x2c9;" 
d="M218 640h270l-5 -19h-270z" />
    <glyph glyph-name="breve" unicode="&#x2d8;" 
d="M345 594q-45 0 -72.5 27t-27.5 70q0 12 3 26h16q-8 -43 14 -73.5t69 -30.5q27 0 48 9t37.5 23.5t29 33t20.5 38.5h16q-19 -52 -57.5 -87.5t-95.5 -35.5z" />
    <glyph glyph-name="dotaccent" unicode="&#x2d9;" 
d="M346 670h31l-16 -57h-31z" />
    <glyph glyph-name="ring" unicode="&#x2da;" 
d="M358 611q16 0 31.5 6.5t27.5 17.5t19.5 26.5t7.5 33.5q0 31 -19.5 49.5t-52.5 18.5q-16 0 -31.5 -6.5t-27.5 -17.5t-19.5 -26.5t-7.5 -33.5q0 -31 19.5 -49.5t52.5 -18.5zM357 595q-40 0 -64.5 23t-24.5 60q0 22 9 40.5t24 32t33.5 21t38.5 7.5q40 0 64.5 -23t24.5 -60
q0 -22 -9 -40.5t-24 -32t-34 -21t-38 -7.5z" />
    <glyph glyph-name="cedilla" unicode="&#xb8;" 
d="M84 -130l123 135h14l-118 -146z" />
    <glyph glyph-name="hungarumlaut" unicode="&#x2dd;" 
d="M347 719l24 -12l-137 -112h-16zM469 719l24 -12l-137 -112h-16z" />
    <glyph glyph-name="ogonek" unicode="&#x2db;" 
d="M224 -159q-72 -1 -101.5 20t-29.5 60q0 22 10 45t24 44h16q-13 -23 -21.5 -46.5t-8.5 -40.5q0 -34 26 -49.5t89 -16.5z" />
    <glyph glyph-name="caron" unicode="&#x2c7;" 
d="M260 717h15l69 -96l120 96h20l-139 -122h-12z" />
    <glyph glyph-name="Lslash" unicode="&#x141;" horiz-adv-x="608" 
d="M150 333l-104 -32l6 21l104 32l93 346h22l-91 -339l263 81l-5 -21l-264 -81l-86 -320h430l-5 -20h-452z" />
    <glyph glyph-name="lslash" unicode="&#x142;" horiz-adv-x="259" 
d="M146 355l-87 -27l5 20l87 27l96 355h21l-93 -348l86 27l-5 -20l-87 -27l-97 -362h-21z" />
    <glyph glyph-name="Scaron" unicode="&#x160;" horiz-adv-x="639" 
d="M355 887h15l69 -96l120 96h20l-139 -122h-12zM302 -10q-42 0 -82.5 9t-76.5 26t-67 41t-54 54l17 13q45 -58 115 -90.5t150 -32.5q55 0 97 15.5t69.5 40t41.5 55.5t14 61q0 36 -15.5 61.5t-41.5 45t-59.5 34t-69.5 28.5q-35 13 -69 28t-60 34.5t-42 46t-16 62.5
q0 35 16 69t46.5 60.5t76 42.5t104.5 16q74 0 134.5 -27t103.5 -74l-16 -14q-40 44 -97 69.5t-127 25.5q-53 0 -93.5 -14.5t-68.5 -37.5t-42.5 -53t-14.5 -61q0 -32 15.5 -55.5t40.5 -41.5t57 -31.5t66 -26.5q36 -14 71 -29.5t62.5 -36.5t44 -50t16.5 -69q0 -35 -15 -69.5
t-45.5 -62t-76.5 -45t-109 -17.5z" />
    <glyph glyph-name="scaron" unicode="&#x161;" horiz-adv-x="490" 
d="M244 717h15l69 -96l120 96h20l-139 -122h-12zM209 -9q-55 0 -110.5 20.5t-95.5 59.5l14 15q83 -75 193 -75q40 0 70.5 10.5t51 27t31 36.5t10.5 40q0 24 -9 41.5t-26 31t-42 25t-56 23.5q-29 11 -54.5 23.5t-45 27.5t-30.5 34t-11 44t12 49.5t35 43t56.5 30t76.5 11.5
q18 0 40.5 -3.5t46.5 -11.5t47 -20.5t43 -29.5l-14 -15q-38 32 -82 46t-82 14t-67.5 -10t-49.5 -25.5t-30 -35.5t-10 -41q0 -23 10.5 -39.5t28.5 -29.5t42 -23.5t51 -21.5q30 -12 56 -24.5t45 -28t30 -35.5t11 -48q0 -24 -12.5 -48.5t-36 -44t-58 -31.5t-79.5 -12z" />
    <glyph glyph-name="Yacute" unicode="&#xdd;" horiz-adv-x="664" 
d="M537 889l24 -12l-137 -112h-16zM326 294l-184 406h23l176 -389l386 389h28l-408 -410l-78 -290h-22z" />
    <glyph glyph-name="yacute" unicode="&#xfd;" horiz-adv-x="573" 
d="M450 719l24 -12l-137 -112h-16zM30 -163q-34 0 -58 8t-38 19l11 16q17 -11 37.5 -18t47.5 -7q18 0 37 5t40.5 20.5t47.5 43t58 72.5l-111 504h22l104 -485l338 485h24l-355 -505q-37 -53 -65.5 -84t-52.5 -47.5t-45 -21.5t-42 -5z" />
    <glyph glyph-name="Thorn" unicode="&#xde;" horiz-adv-x="670" 
d="M316 160q74 0 131 16.5t96 46t59 69t20 85.5q0 70 -41 111q-28 28 -72 42.5t-108 14.5h-196l-103 -385h214zM225 700h22l-36 -135h191q69 0 116.5 -15.5t79.5 -47.5q46 -46 46 -124q0 -53 -22.5 -97t-65 -75.5t-103.5 -48.5t-138 -17h-218l-38 -140h-22z" />
    <glyph glyph-name="thorn" unicode="&#xfe;" horiz-adv-x="650" 
d="M311 8q59 0 107.5 26t82.5 67.5t52.5 92.5t18.5 102q0 42 -13.5 77.5t-38.5 62t-59 41.5t-75 15q-62 0 -113.5 -27.5t-88 -68.5t-57 -89.5t-20.5 -90.5q0 -45 14.5 -83t41 -66t64 -43.5t84.5 -15.5zM221 730h21l-96 -356q10 20 32.5 44t54 45t71 35t83.5 14
q46 0 84 -16.5t65.5 -45.5t42.5 -67.5t15 -83.5q0 -56 -20 -111.5t-57 -100t-89 -72t-116 -27.5q-51 0 -90.5 16.5t-66.5 42.5t-43 58.5t-20 64.5l-89 -330h-21z" />
    <glyph glyph-name="Zcaron" unicode="&#x17d;" horiz-adv-x="668" 
d="M374 887h15l69 -96l120 96h20l-139 -122h-12zM-4 12l683 668h-487l6 20h521l-4 -13l-683 -667h501l-5 -20h-535z" />
    <glyph glyph-name="zcaron" unicode="&#x17e;" horiz-adv-x="487" 
d="M246 717h15l69 -96l120 96h20l-139 -122h-12zM-29 12l506 470h-368l5 18h400l-3 -12l-506 -470h382l-5 -18h-414z" />
    <glyph glyph-name="eth" unicode="&#xf0;" horiz-adv-x="606" 
d="M273 8q56 0 104 22.5t82.5 59.5t54 83.5t19.5 94.5q0 41 -15 76t-42 60.5t-65 40t-84 14.5q-54 0 -100.5 -22.5t-80.5 -59t-53.5 -83t-19.5 -94.5q0 -41 15 -76t41.5 -61t63 -40.5t80.5 -14.5zM272 -12q-47 0 -87.5 16t-70 43.5t-46.5 66t-17 83.5q0 52 21 102.5t58 90.5
t87.5 64.5t110.5 24.5q67 0 114 -26t73 -64l-108 260l-166 -78l-8 17l167 78l-26 64h26l22 -54l122 58l8 -17l-123 -58l96 -235q14 -35 22 -72.5t8 -80.5q0 -52 -21 -102.5t-58.5 -90.5t-89.5 -65t-114 -25z" />
    <glyph glyph-name="apple" horiz-adv-x="967" 
d="M417 64q0 -7 -2.5 -12t-9.5 -5q-6 0 -9 5t-3 12q0 16 12 16t12 -16zM352 64h-3q-8 0 -8 8q0 6 7 6q4 0 4 -4v-10zM553 79q4 0 0 -9q-5 9 0 9zM393 182q0 -7 -4 -7h-5q-11 0 -18.5 10t-7.5 22q0 17 14 17h6q3 -1 3.5 -1.5t2.5 -5.5zM716 187q0 -13 -11 -13q-9 0 -17 11.5
t-8 26.5q0 14 11 14q9 0 17 -11.5t8 -27.5zM275 200q-8 0 -11.5 5t-3.5 10q0 9 8 9t9 -5l3 -19h-5zM381 384q-13 0 -13 11t13 11h11v-22h-11zM684 535q0 -13 -11 -13q-9 0 -17 11.5t-8 26.5q0 14 11 14q9 0 17 -11.5t8 -27.5zM272 553q-3 -4 -7 -4t-4 2q0 3 4 3q5 0 7 -1z
M566 553q-3 -4 -7 -4t-4 2q0 3 4 3q5 0 7 -1zM171 548q-8 0 -11.5 5t-3.5 10q0 9 8 9t9 -5l3 -19h-5zM441 -88q0 13 -11 13t-11 -12q0 -13 11 -13t11 12zM800 -88q0 13 -11 13t-11 -12q0 -13 11 -13t11 12zM559 -80l-5 -12h10zM394 -83q0 8 -11 7v-13q11 0 11 6zM525 -82
q0 8 -11 6v-12q11 -1 11 6zM606 -83q0 8 -11 7v-13q11 0 11 6zM309 48q-2 0 -3 1q-3 1 -3 5v20q0 2 3 4q1 1 3 1v2h-18v-2q1 0 3 -1q3 -3 3 -4v-9q-2 0 -4 2l-8 8q-3 1 -1 3q1 1 2 1v2h-14v-2q1 0 3 -1t2.5 -1.5t2.5 -1.5l10 -9l-13 -13q-1 -1 -2 -1.5t-2 -1.5q-2 -1 -3 -2
v-2h17v2q-2 0 -3 1t1 4l8 8q2 2 4 2v-9q0 -2 -3 -5q-2 -1 -3 -1v-2h18v2zM364 48q-2 0 -3 1q-2 2 -2 4v20q0 3 2 5q1 1 3 1v2h-18q-13 0 -13 -9q0 -5 9 -9l-7 -10q-2 -2 -3.5 -2.5t-2.5 -1.5l-2 -1v-2h11l7 12q3 4 7 4v-9q0 -2 -1 -2.5t-2 -1.5t-2 -1v-2h17v2zM425 64
q0 8 -5 13t-15 5t-15 -5t-5 -13t5 -13.5t15 -5.5t15 5.5t5 13.5zM480 81h-15v-2q1 0 2 -1t-1 -4l-6 -9l-6 9q-2 2 0 4q1 1 3 1v2h-15v-2q1 0 3 -1t5 -4l8 -12v-8q0 -2 -3 -5q-1 -1 -2 -1v-2h17v2q-2 0 -3 1q-2 2 -2 5v8l8 12q1 2 2.5 2.5t2.5 1.5t2 1v2zM568 81v-2q1 0 2 -1
t0 -4l-9 -19l-5 10l4 8q1 2 2 2.5t2 1.5l2 2v2h-26l1 -2q1 0 2 -1l2 -2l3 -3l3 -5l-7 -13l-8 18q-2 3 0 5q1 1 2 1v2h-13v-2q1 0 2 -1q3 -3 4 -5l13 -27h1q1 -1 1 0l8 16l9 -16h1l12 27q1 2 2.5 3t2.5 2t2 1v2h-15zM633 48q-2 -1 -3 0q-2 0 -2 5v21q0 3 2 5h3v2h-29l-2 -10
l2 -1q0 2 2 4q2 4 7 4h4q4 0 4 -3v-10h-4q-3 0 -5 2q-1 1 -1 3h-2v-13h2q0 1 1 3q3 3 5 3h4v-11q0 -3 -4 -3h-4q-4 0 -8 4q-2 2 -2 5l-2 -1l2 -11h30v2zM694 48q-2 0 -3 1q-3 1 -3 4v20q0 2 3 4q1 1 3 2v2h-10l-24 -26v18q0 3 3 5q1 1 3 1v2h-15v-2q1 0 3 -1q3 -3 3 -5v-28
h3l25 28v-20q0 -1 -3 -4q-1 -1 -2 -1v-2h14v2zM827 133h-685v-6h685v6zM306 174q-2 0 -4 1t-3.5 2t-2.5 5l-7 35q-1 5 3 7q2 1 4 1l-1 3h-27q-20 0 -20 -15q0 -6 5.5 -10t13.5 -5l-9 -16q-2 -4 -4.5 -5t-4.5 -2q-3 -1 -5 -1l1 -3h19l12 23q1 3 5 3l3 -15q1 -5 -3 -7
q-2 -1 -4 -1l1 -3h29zM413 175q-2 -1 -4 0q-5 2 -6 9l-8 31q-3 9 8 10l-1 3h-30q-9 0 -17 -5.5t-8 -16.5q0 -16 11 -25.5t24 -9.5h32zM522 174q-1 0 -3 1q-5 2 -6 9l-7 32q-1 6 3 8q2 1 5 1l-1 3h-14l-29 -42l-5 30q-1 6 3 8q2 1 4 1l-1 3h-21l1 -3q2 0 4 -1q3 -2 5 -8
l8 -45l3 -1l30 44l6 -30q1 -7 -2 -9q-2 -1 -4 -1l1 -3h21zM620 228h-29l1 -3q2 0 4 -1q5 -2 6 -8l5 -21q2 -10 1 -15t-12 -5q-8 0 -13 6.5t-7 15.5l-4 19q-1 7 3 9q2 1 4 0v3h-24l1 -3q2 0 5 -1q5 -2 6 -8l4 -19q2 -8 8 -17.5t20 -9.5q17 0 19 8t0 16l-5 22q-2 4 -0.5 6
t3.5 3t5 0zM822 174q-2 0 -4 1t-3.5 2t-2.5 5l-7 35q-1 5 3 7q2 1 4 1l-1 3h-45v-10v-7h4q-1 3 1 6q2 7 12 7h4q5 0 6 -6l3 -16h-4q-5 0 -9 4q-2 2 -3 5h-3l5 -23h3q0 2 1 5q2 6 7 6h4l3 -17q1 -5 -3 -7q-2 -1 -4 -1l1 -3h29zM203 217q-3 5 -6.5 9t-11.5 4q-15 0 -14 -23
q-3 10 -8 16.5t-13 6.5q-5 0 -8.5 -3t-3.5 -9l3 -1q0 6 8 6q10 0 15.5 -10.5t8.5 -22.5q2 -7 1 -9.5t-3 -4.5t-4 -1l1 -4h28l-1 4q-2 -1 -4 0q-5 2 -6 9q-5 17 -5 25q0 13 9 13q5 0 7.5 -2.5l4.5 -4.5zM728 192q0 15 -11.5 26.5t-25.5 11.5q-7 0 -15 -5t-8 -17
q0 -16 11.5 -27t25.5 -11q7 0 15 5t8 17zM827 277h-685v-6h685v6zM283 341h-14v65h14v34h-141v-62h41v28h33v-20h-24v-24h24v-21h-33v28h-41v-61h141v33zM458 341h-14v65h14v34h-96q-22 0 -34.5 -11.5t-12.5 -28.5t12.5 -28.5t34.5 -11.5h30v-19h-15v-33h81v33zM648 440h-81
v-34h11l-15 -23l-15 23h10v34h-62v-34h12l37 -46v-19h-14v-33h81v33h-15v20l37 45h14v34zM827 440h-147v-62h36v28h11v-65h-14v-33h81v33h-14v65h11v-28h36v62zM827 481h-685v-6h685v6zM400 521q0 2 -3 5t-10 4q-4 3 -4.5 10.5t-2 16t-6 15t-16.5 6.5q-5 0 -9 -3.5t-4 -6.5
q0 -5 5 -5q4 0 4 6t5 6t6.5 -5t2.5 -12t3.5 -14.5t8.5 -13.5q-11 0 -14.5 -6.5t-8.5 -6.5t-5 4q0 2 1 2.5t1 2.5q0 5 -5 5t-5 -7q0 -5 5 -8.5t10 -3.5q13 0 15 6.5t10 6.5q3 -7 12 -7q4 0 4 3zM202 522q-2 0 -4 1t-3.5 2t-2.5 5l-7 35q-1 5 3 7q2 1 4 1l-1 3h-27
q-20 0 -20 -15q0 -6 5.5 -10t13.5 -5l-9 -16q-2 -4 -4.5 -5t-4.5 -2q-3 -1 -5 -1l1 -3h19l12 23q1 3 5 3l3 -15q1 -5 -3 -7q-2 -1 -4 -1l1 -3h29zM497 522q-2 0 -4 1t-3.5 2t-2.5 5l-7 35q-1 5 3 7q2 1 4 1l-1 3h-45v-10v-7h4q-1 3 1 6q2 7 12 7h4q5 0 6 -6l3 -16h-4
q-5 0 -9 4q-2 2 -3 5h-3l5 -23h3q0 2 1 5q2 6 7 6h4l3 -17q1 -5 -3 -7q-2 -1 -4 -1l1 -3h29zM820 522q-2 0 -4 1t-3.5 2t-2.5 5l-7 35q-1 5 3 7q2 1 4 1l-1 3h-28l1 -3q2 0 4 -1q4 -2 5 -7l3 -15h-24l-3 15q-1 5 3 7q2 1 4 1l-1 3h-29l1 -3q2 0 4 -1q5 -2 6 -7l7 -35
q1 -5 -3 -7q-2 -1 -4 -1l1 -3h29l-1 3q-2 0 -4 1t-3.5 2t-2.5 5l-3 16h24l3 -16q1 -5 -3 -7q-2 -1 -4 -1l1 -3h29zM295 537q0 12 -14 17q5 3 5 9q0 5 -5 10t-16 5q-13 0 -13 -11q0 -6 5 -6q4 0 4 3t-1.5 3.5t-1.5 2.5q0 5 7 5q10 0 10 -12q0 -4 -2 -6q-16 2 -16 -6
q0 -6 8 -6q6 0 11 5q6 -5 6 -15q0 -14 -12 -14t-12 9q0 3 3 3q1 0 2 -1t3 -1q4 0 4 5t-7 5q-9 0 -9 -10q0 -13 16 -13q13 0 19 5.5t6 13.5zM589 537q0 12 -14 17q5 3 5 9q0 5 -5 10t-16 5q-13 0 -13 -11q0 -6 5 -6q4 0 4 3t-1.5 3.5t-1.5 2.5q0 5 7 5q10 0 10 -12
q0 -4 -2 -6q-16 2 -16 -6q0 -6 8 -6q6 0 11 5q6 -5 6 -15q0 -14 -12 -14t-12 9q0 3 3 3q1 0 2 -1t3 -1q4 0 4 5t-7 5q-9 0 -9 -10q0 -13 16 -13q13 0 19 5.5t6 13.5zM696 540q0 15 -11.5 26.5t-25.5 11.5q-7 0 -15 -5t-8 -17q0 -16 11.5 -27t25.5 -11q7 0 15 5t8 17z
M827 624h-685v-6h685v6zM439 664q-2 -1 -3 0q-2 0 -2 5v21q0 3 2 5h3v2h-29l-2 -10l2 -1q0 2 2 4q2 4 7 4h4q4 0 4 -3v-10h-4q-3 0 -5 2q-1 1 -1 3h-2v-13h2q0 1 1 3q3 3 5 3h4v-11q0 -3 -4 -3h-4q-4 0 -8 4q-2 2 -2 5l-2 -1l2 -11h30v2zM504 664q-2 -1 -3 0q-3 0 -3 5v21
q0 3 3 5h3v2h-18v-1v-1h2q3 -3 3 -5v-9h-17v9q0 3 2 5h3v1v1h-17v-2h2q3 -3 3 -5v-21q0 -2 -1 -2.5t-2 -1.5t-2 -1v-2h17v2q-2 0 -3 1q-2 2 -2 4v10h17v-10q0 -5 -3 -5q-1 -1 -2 0v-2h18v2zM559 686v4q0 2 -0.5 4t-0.5 4q-2 -1 -17 -1t-18 1q0 -2 -0.5 -4t-0.5 -4v-4h2
q1 2 3 4q5 5 7 5q3 0 3 -3v-23q0 -5 -3 -5q-1 -1 -2 0v-2h17v2q-2 -1 -3 0q-2 0 -2 5v23q0 3 3 3t8 -5q2 -2 2 -4h2zM284 -101q0 -4 -4 -4t-4 4t4 4t4 -4zM716 -101q0 -4 -4 -4t-4 4t4 4t4 -4zM143 -105h-1l-11 23l-10 -23h-1l-12 34l6 1l7 -23l10 23h1l10 -23l7 22h6z
M199 -105h-1l-11 23l-10 -23h-1l-12 34l6 1l7 -23l10 23h1l10 -23l7 22h6zM255 -105h-1l-11 23l-10 -23h-1l-12 34l6 1l7 -23l10 23h1l10 -23l7 22h6zM323 -76h-12v-28h-6v28h-12v5h30v-5zM351 -90v-14h-6v14l-14 19l6 1l11 -15l9 14h7zM400 -82q0 -12 -17 -12v-10h-6v33
q14 2 18.5 -2t4.5 -9zM447 -87q0 -8 -4.5 -13t-12.5 -5t-12.5 5t-4.5 12q0 8 5 13t13 5q7 0 11.5 -5t4.5 -12zM491 -101q-6 -4 -13 -4q-8 0 -13 4.5t-5 12.5t5.5 13t13.5 5q6 0 12 -4l-2 -5q-4 4 -11 4q-12 0 -12 -13q0 -12 13 -12q2 0 6 2v7h-9v5h15v-15zM527 -104l-8 11
h-5v-11h-6v33q14 2 18.5 -1.5t4.5 -8.5q0 -7 -7 -10l10 -13h-7zM570 -104l-4 8h-14l-3 -8h-6l15 34h2l16 -34h-6zM612 -82q0 -12 -17 -12v-10h-6v33q14 2 18.5 -2t4.5 -9zM650 -104v15h-16v-15h-6v33h6v-13h16v13h6v-33h-6zM689 -90v-14h-6v14l-14 19l6 1l11 -15l9 14h7z
M757 -102q-3 -3 -10 -3q-18 0 -18 17q0 8 5 13t13 5q6 0 11 -3l-2 -5q-3 3 -9 3q-5 0 -8.5 -3.5t-3.5 -8.5q0 -13 13 -13q4 0 10 4zM806 -87q0 -8 -4.5 -13t-12.5 -5t-12.5 5t-4.5 12q0 8 5 13t13 5q7 0 11.5 -5t4.5 -12zM853 -104l-3 20l-10 -21h-2l-10 21l-3 -20h-6l6 34
h1l13 -26l13 26h1l6 -34h-6zM101 0v750h767v-750h-767z" />
    <glyph glyph-name="Eth" unicode="&#xd0;" horiz-adv-x="763" 
d="M260 20q105 0 191 32.5t146 92.5q50 50 77 117t27 143q0 60 -18.5 106t-51.5 79q-45 45 -112 67.5t-148 22.5h-130l-85 -318h250l-5 -20h-251l-86 -322h196zM129 342h-77l5 20h77l91 338h140q88 0 161 -24t121 -72q36 -36 56 -85.5t20 -112.5q0 -81 -28.5 -151.5
t-81.5 -123.5q-63 -63 -154.5 -97t-202.5 -34h-219z" />
  </font>
</defs>
</svg>
