<?xml version="1.0" standalone="no"?>
<!DOCTYPE svg PUBLIC "-//W3C//DTD SVG 1.1//EN" "http://www.w3.org/Graphics/SVG/1.1/DTD/svg11.dtd" >
<svg xmlns="http://www.w3.org/2000/svg">
<metadata>Generated by IcoMoon</metadata>
<defs>
<font id="umons-icons" horiz-adv-x="1024">
<font-face units-per-em="1024" ascent="960" descent="-64" />
<missing-glyph horiz-adv-x="1024" />
<glyph unicode="&#x20;" horiz-adv-x="512" d="" />
<glyph unicode="&#xe900;" glyph-name="download" d="M512 448l256 256h-192v256h-128v-256h-192zM960 960h-192v-128h128v-512h-768v512h128v128h-192c-38.4 0-64-25.6-64-64v-896c0-38.4 25.6-64 64-64h896c38.4 0 64 25.6 64 64v896c0 38.4-25.6 64-64 64zM128 64v128h768v-128h-768z" />
<glyph unicode="&#xe901;" glyph-name="mouse" d="M469.333 533.333h85.333v-170.667h-85.333v170.667zM469.333 789.333h85.333v-170.667h-85.333v170.667zM512 448c-72.533 0-128 55.467-128 128s55.467 128 128 128 128-55.467 128-128-55.467-128-128-128zM512 618.667c-25.6 0-42.667-17.067-42.667-42.667s17.067-42.667 42.667-42.667 42.667 17.067 42.667 42.667-17.067 42.667-42.667 42.667zM597.333-64h-170.667c-145.067 0-256 110.933-256 256v512c0 145.067 110.933 256 256 256h170.667c145.067 0 256-110.933 256-256v-512c0-145.067-110.933-256-256-256zM426.667 874.667c-93.867 0-170.667-76.8-170.667-170.667v-512c0-93.867 76.8-170.667 170.667-170.667h170.667c93.867 0 170.667 76.8 170.667 170.667v512c0 93.867-76.8 170.667-170.667 170.667h-170.667z" />
<glyph unicode="&#xe902;" glyph-name="remove-bold" d="M780.8 902.4l-268.8-275.2-268.8 275.2-185.6-185.6 275.2-268.8-275.2-268.8 185.6-185.6 268.8 275.2 268.8-275.2 185.6 185.6-275.2 268.8 275.2 268.8z" />
<glyph unicode="&#xe903;" glyph-name="tv" d="M960 704h-358.4l147.2 147.2c25.6 25.6 25.6 64 0 89.6s-64 25.6-89.6 0l-198.4-198.4-83.2 128c-25.6 25.6-64 32-96 12.8-25.6-19.2-32-57.6-12.8-89.6l64-89.6h-268.8c-38.4 0-64-25.6-64-64v-640c0-38.4 25.6-64 64-64h896c38.4 0 64 25.6 64 64v640c0 38.4-25.6 64-64 64zM896 64h-768v512h768v-512zM192 512h640v-384h-640v384z" />
<glyph unicode="&#xe904;" glyph-name="external" d="M960 960h-448v-128h294.4l-403.2-403.2 89.6-89.6 403.2 403.2v-294.4h128v448c0 38.4-25.6 64-64 64zM896-64h-832c-38.4 0-64 25.6-64 64v832c0 38.4 25.6 64 64 64h256v-128h-192v-704h704v192h128v-256c0-38.4-25.6-64-64-64z" />
<glyph unicode="&#xe905;" glyph-name="pen-plain" d="M972.8 396.8l-352 352c-25.6 25.6-64 25.6-89.6 0l-448-448c-6.4-6.4-12.8-19.2-19.2-32l-64-256c-6.4-19.2 0-44.8 19.2-57.6 12.8-12.8 25.6-19.2 44.8-19.2 6.4 0 12.8 0 12.8 0l256 64c12.8 0 19.2 6.4 32 19.2l403.2 403.2 70.4-70.4-211.2-211.2c-25.6-25.6-25.6-64 0-89.6s64-25.6 89.6 0l256 256c25.6 25.6 25.6 64 0 89.6zM710.4 838.4l192-192 83.2 83.2c51.2 51.2 51.2 140.8 0 192v0c-51.2 51.2-140.8 51.2-192 0l-83.2-83.2z" />
<glyph unicode="&#xe906;" glyph-name="print" d="M981.333 746.667h-128v170.667c0 25.6-17.067 42.667-42.667 42.667h-597.333c-25.6 0-42.667-17.067-42.667-42.667v-170.667h-128c-25.6 0-42.667-17.067-42.667-42.667v-512c0-25.6 17.067-42.667 42.667-42.667h128v-170.667c0-25.6 17.067-42.667 42.667-42.667h597.333c25.6 0 42.667 17.067 42.667 42.667v170.667h128c25.6 0 42.667 17.067 42.667 42.667v512c0 25.6-17.067 42.667-42.667 42.667zM256 874.667h512v-128h-512v128zM256 21.333v384h512v-213.333c0 0 0 0 0 0v0-170.667h-512z" />
<glyph unicode="&#xe907;" glyph-name="share" d="M810.667 618.667c93.867 0 170.667 76.8 170.667 170.667s-76.8 170.667-170.667 170.667-170.667-76.8-170.667-170.667c0-17.067 4.267-29.867 8.533-42.667l-311.467-179.2c-34.133 29.867-76.8 51.2-123.733 51.2-93.867 0-170.667-76.8-170.667-170.667s76.8-170.667 170.667-170.667c46.933 0 89.6 21.333 123.733 51.2l311.467-179.2c-4.267-12.8-8.533-29.867-8.533-42.667 0-93.867 76.8-170.667 170.667-170.667s170.667 76.8 170.667 170.667-76.8 170.667-170.667 170.667c-46.933 0-89.6-21.333-123.733-51.2l-311.467 179.2c4.267 12.8 8.533 25.6 8.533 42.667s-4.267 29.867-8.533 42.667l311.467 179.2c34.133-29.867 76.8-51.2 123.733-51.2z" />
<glyph unicode="&#xe908;" glyph-name="email" d="M960 896h-896c-38.4 0-64-25.6-64-64v-89.6l512-288 512 281.6v96c0 38.4-25.6 64-64 64zM480 326.4l-480 268.8v-531.2c0-38.4 25.6-64 64-64h896c38.4 0 64 25.6 64 64v531.2l-480-268.8c-19.2-6.4-44.8-6.4-64 0z" />
<glyph unicode="&#xe909;" glyph-name="chevron-down" d="M512 302.933l-230.4 230.4 59.733 59.733 170.667-170.667 170.667 170.667 59.733-59.733z" />
<glyph unicode="&#xe90a;" glyph-name="remove" d="M152.982 149.325l657.697 657.697 60.339-60.339-657.697-657.697-60.339 60.339zM152.982 746.683l60.339 60.339 657.697-657.697-60.339-60.339-657.697 657.697z" />
<glyph unicode="&#xe90b;" glyph-name="phone" d="M979.2 172.8l-166.4 166.4c-25.6 25.6-64 25.6-89.6 0l-147.2-147.2-320 320 147.2 147.2c25.6 25.6 25.6 64 0 89.6l-166.4 166.4c-25.6 25.6-64 25.6-89.6 0l-147.2-147.2c0-460.8 371.2-832 832-832l147.2 147.2c25.6 25.6 25.6 64 0 89.6z" />
<glyph unicode="&#xe90c;" glyph-name="send" d="M230.4 345.6v-313.6c0-44.8 51.2-64 83.2-32l147.2 172.8 300.8-224c25.6-19.2 64-6.4 70.4 25.6l192 928c6.4 38.4-25.6 64-64 51.2l-928-371.2c-32-12.8-38.4-57.6-12.8-83.2l102.4-76.8 294.4 140.8c25.6 12.8 44.8-19.2 25.6-32l-211.2-185.6z" />
<glyph unicode="&#xe90d;" glyph-name="tile" d="M960 896h-896c-38.4 0-64-25.6-64-64v-768c0-38.4 25.6-64 64-64h896c38.4 0 64 25.6 64 64v768c0 38.4-25.6 64-64 64zM128 512h512v-128h-512v128zM640 768v-128h-512v128h512zM128 256h512v-128h-512v128zM896 128h-128v640h128v-640z" />
<glyph unicode="&#xe90e;" glyph-name="bullet-list" d="M384 896h640v-128h-640v128zM384 512h640v-128h-640v128zM384 128h640v-128h-640v128zM192 960h-128c-38.4 0-64-25.6-64-64v-128c0-38.4 25.6-64 64-64h128c38.4 0 64 25.6 64 64v128c0 38.4-25.6 64-64 64zM192 576h-128c-38.4 0-64-25.6-64-64v-128c0-38.4 25.6-64 64-64h128c38.4 0 64 25.6 64 64v128c0 38.4-25.6 64-64 64zM192 192h-128c-38.4 0-64-25.6-64-64v-128c0-38.4 25.6-64 64-64h128c38.4 0 64 25.6 64 64v128c0 38.4-25.6 64-64 64z" />
<glyph unicode="&#xe90f;" glyph-name="world" d="M221.867 59.733l-42.667 72.533c21.333 12.8 34.133 25.6 42.667 38.4 17.067 29.867 34.133 76.8 0 123.733-8.533 12.8-21.333 25.6-29.867 38.4-34.133 34.133-64 72.533-64 115.2 0 55.467 51.2 81.067 102.4 106.667 29.867 12.8 64 29.867 76.8 46.933 17.067 21.333 0 81.067-25.6 123.733-17.067 29.867-34.133 51.2-64 72.533l51.2 68.267c38.4-25.6 68.267-59.733 89.6-98.133 17.067-29.867 72.533-140.8 17.067-217.6-25.6-34.133-68.267-55.467-106.667-72.533-17.067-8.533-46.933-21.333-55.467-34.133 4.267-12.8 29.867-42.667 42.667-55.467s25.6-29.867 34.133-42.667c42.667-68.267 42.667-145.067 0-217.6-12.8-25.6-34.133-46.933-68.267-68.267zM631.467 618.667c-46.933 0-72.533 38.4-93.867 72.533-4.267 8.533-12.8 21.333-21.333 29.867-4.267 12.8-12.8 25.6-25.6 38.4-29.867 34.133-64 72.533-64 115.2 0 17.067 0 38.4 8.533 55.467l76.8-25.6c0-4.267 0-12.8 0-29.867 0-12.8 29.867-42.667 42.667-59.733s25.6-29.867 34.133-42.667c8.533-12.8 17.067-25.6 21.333-38.4 8.533-12.8 17.067-29.867 21.333-29.867h8.533c17.067 0 136.533 29.867 217.6 72.533l38.4-76.8c-89.6-46.933-226.133-81.067-256-81.067-4.267 0-8.533 0-8.533 0zM512-64c-281.6 0-512 230.4-512 512s230.4 512 512 512c281.6 0 512-230.4 512-512s-230.4-512-512-512zM512 874.667c-234.667 0-426.667-192-426.667-426.667s192-426.667 426.667-426.667c234.667 0 426.667 192 426.667 426.667s-192 426.667-426.667 426.667zM580.267 102.4c-12.8 0-29.867 4.267-42.667 8.533-76.8 29.867-72.533 89.6-68.267 149.333 4.267 38.4 4.267 85.333 0 145.067-4.267 38.4 8.533 76.8 34.133 106.667 38.4 42.667 98.133 68.267 153.6 68.267 106.667 0 192-76.8 192-170.667 0-102.4-81.067-213.333-162.133-268.8-34.133-25.6-72.533-38.4-106.667-38.4zM661.333 494.933c-34.133 0-72.533-17.067-89.6-38.4-8.533-8.533-17.067-25.6-17.067-42.667 8.533-72.533 4.267-123.733 4.267-162.133-4.267-55.467-4.267-55.467 12.8-64 12.8-4.267 38.4 0 72.533 25.6 59.733 42.667 123.733 128 123.733 196.267 0 46.933-46.933 85.333-106.667 85.333z" />
<glyph unicode="&#xe910;" glyph-name="zoom" d="M665.605 251.402l45.254 45.254 271.526-271.526-45.254-45.254-271.526 271.526zM416 128c-230.4 0-416 185.6-416 416s185.6 416 416 416c230.4 0 416-185.6 416-416s-185.6-416-416-416zM416 896c-195.2 0-352-156.8-352-352s156.8-352 352-352 352 156.8 352 352-156.8 352-352 352z" />
<glyph unicode="&#xe911;" glyph-name="pin" d="M512 960c-249.6 0-448-198.4-448-448 0-121.6 44.8-236.8 134.4-320 6.4-6.4 262.4-236.8 268.8-243.2 25.6-19.2 64-19.2 83.2 0 6.4 6.4 268.8 236.8 268.8 243.2 89.6 83.2 134.4 198.4 134.4 320 6.4 249.6-192 448-441.6 448zM512 384c-70.4 0-128 57.6-128 128s57.6 128 128 128 128-57.6 128-128-57.6-128-128-128z" />
<glyph unicode="&#xe912;" glyph-name="chevron-right" d="M426.667 217.6l-59.733 59.733 170.667 170.667-170.667 170.667 59.733 59.733 230.4-230.4z" />
<glyph unicode="&#xe913;" glyph-name="chevron-left" d="M597.333 217.6l-230.4 230.4 230.4 230.4 59.733-59.733-170.667-170.667 170.667-170.667z" />
<glyph unicode="&#xe914;" glyph-name="tail-right" d="M921.6 448l-273.067 273.067-59.733-64 166.4-166.4h-652.8v-85.333h652.8l-166.4-166.4 59.733-64 273.067 273.067z" />
<glyph unicode="&#xe915;" glyph-name="triangle-right" d="M213.333-21.333v938.667l627.2-469.333-627.2-469.333zM298.667 746.667v-597.333l396.8 298.667-396.8 298.667z" />
<glyph unicode="&#xe916;" glyph-name="triangle-left" d="M810.667-21.333l-627.2 469.333 627.2 469.333v-938.667zM328.533 448l396.8-298.667v597.333l-396.8-298.667z" />
<glyph unicode="&#xe917;" glyph-name="sheet" d="M981.333-64h-938.667v1024h938.667v-1024zM128 21.333h768v853.333h-768v-853.333zM597.333 746.667h170.667v-85.333h-170.667v85.333zM597.333 576h170.667v-85.333h-170.667v85.333zM256 405.333h512v-85.333h-512v85.333zM256 234.667h512v-85.333h-512v85.333zM512 490.667h-256v256h256v-256zM341.333 576h85.333v85.333h-85.333v-85.333z" />
<glyph unicode="&#xe918;" glyph-name="tie" d="M738.133 294.4l-68.267 59.733 85.333 93.867-192 230.4 68.267 51.2 234.667-281.6zM512-38.4l-260.267 260.267 132.267 494.933 85.333-25.6-123.733-443.733 166.4-166.4 166.4 166.4-123.733 443.733 85.333 25.6 132.267-494.933zM622.933 661.333h-221.867l-128 256h477.867l-128-256zM452.267 746.667h119.467l42.667 85.333h-204.8l42.667-85.333z" />
<glyph unicode="&#xe919;" glyph-name="microscope" d="M298.059 746.592l158.174 64.085 32.043-79.087-158.174-64.085-32.043 79.087zM170.667 362.667h-85.333v42.667c0 145.067 81.067 277.333 209.067 341.333l38.4-76.8c-102.4-46.933-162.133-149.333-162.133-264.533v-42.667zM896-64h-810.667v213.333h810.667v-213.333zM170.667 21.333h640v42.667h-640v-42.667zM418.133 341.333l-213.333 516.267 238.933 98.133 213.333-507.733-238.933-106.667zM315.733 810.667l145.067-354.133 81.067 34.133-145.067 349.867-81.067-29.867zM426.667 277.333h384v-85.333h-384v85.333zM341.333 64h-256v341.333h42.667c119.467 0 213.333-93.867 213.333-213.333v-128zM170.667 149.333h85.333v42.667c0 55.467-34.133 102.4-85.333 119.467v-162.133z" />
<glyph unicode="&#xe91a;" glyph-name="user" d="M512 405.333c-140.8 0-256 115.2-256 256v42.667c0 140.8 115.2 256 256 256s256-115.2 256-256v-42.667c0-140.8-115.2-256-256-256zM512 874.667c-93.867 0-170.667-76.8-170.667-170.667v-42.667c0-93.867 76.8-170.667 170.667-170.667s170.667 76.8 170.667 170.667v42.667c0 93.867-76.8 170.667-170.667 170.667zM981.333-64h-938.667v132.267c0 93.867 64 179.2 157.867 204.8 76.8 21.333 192 46.933 311.467 46.933s234.667-25.6 311.467-46.933c93.867-25.6 157.867-110.933 157.867-204.8v-132.267zM128 21.333h768v46.933c0 55.467-38.4 106.667-93.867 123.733-72.533 21.333-183.467 42.667-290.133 42.667s-217.6-25.6-290.133-42.667c-55.467-17.067-93.867-68.267-93.867-123.733v-46.933z" />
<glyph unicode="&#xe91b;" glyph-name="hat" d="M512 21.333c-170.667 0-298.667 72.533-298.667 170.667v264.533h85.333v-264.533c0-34.133 81.067-85.333 213.333-85.333s213.333 51.2 213.333 85.333v264.533h85.333v-264.533c0-98.133-128-170.667-298.667-170.667zM853.333 546.133h85.333v-311.467h-85.333v311.467zM512 226.133l-503.467 354.133 503.467 302.933 503.467-302.933-503.467-354.133zM162.133 571.733l349.867-243.2 349.867 243.2-349.867 209.067-349.867-209.067z" />
<glyph unicode="&#xe91c;" glyph-name="glasses" d="M85.333 213.333h-85.333v533.333c0 93.867 76.8 170.667 170.667 170.667h42.667v-85.333h-42.667c-46.933 0-85.333-38.4-85.333-85.333v-533.333zM1024 213.333h-85.333v533.333c0 46.933-38.4 85.333-85.333 85.333h-42.667v85.333h42.667c93.867 0 170.667-76.8 170.667-170.667v-533.333zM640 192h-85.333v42.667c0 25.6-17.067 42.667-42.667 42.667s-42.667-17.067-42.667-42.667v-42.667h-85.333v42.667c0 72.533 55.467 128 128 128s128-55.467 128-128v-42.667zM234.667-21.333c-128 0-234.667 106.667-234.667 234.667s106.667 234.667 234.667 234.667 234.667-106.667 234.667-234.667-106.667-234.667-234.667-234.667zM234.667 362.667c-81.067 0-149.333-68.267-149.333-149.333s68.267-149.333 149.333-149.333 149.333 68.267 149.333 149.333-68.267 149.333-149.333 149.333zM789.333-21.333c-128 0-234.667 106.667-234.667 234.667s106.667 234.667 234.667 234.667 234.667-106.667 234.667-234.667-106.667-234.667-234.667-234.667zM789.333 362.667c-81.067 0-149.333-68.267-149.333-149.333s68.267-149.333 149.333-149.333 149.333 68.267 149.333 149.333-68.267 149.333-149.333 149.333z" />
<glyph unicode="&#xe91d;" glyph-name="book" d="M170.667 106.667h-85.333v725.333c0 72.533 55.467 128 128 128h597.333c72.533 0 128-55.467 128-128v-597.333h-85.333v597.333c0 25.6-17.067 42.667-42.667 42.667h-597.333c-25.6 0-42.667-17.067-42.667-42.667v-725.333zM938.667-64h-682.667c-93.867 0-170.667 76.8-170.667 170.667s76.8 170.667 170.667 170.667h682.667v-341.333zM256 192c-46.933 0-85.333-38.4-85.333-85.333s38.4-85.333 85.333-85.333h597.333v170.667h-597.333zM213.333 789.333h85.333v-597.333h-85.333v597.333zM341.333 149.333h597.333v-85.333h-597.333v85.333zM768 448h-384v256h384v-256zM469.333 533.333h213.333v85.333h-213.333v-85.333z" />
<glyph unicode="&#xe91e;" glyph-name="chalkboard" d="M652.8 674.133l-140.8 140.8-140.8-140.8-59.733 59.733 200.533 200.533 200.533-200.533zM768 64h-298.667v213.333h298.667v-213.333zM554.667 149.333h128v42.667h-128v-42.667zM13.145 673.191l60.339 60.339 126.712-126.712-60.339-60.339-126.712 126.712zM823.808 606.813l126.712 126.712 60.339-60.339-126.712-126.712-60.339 60.339zM823.803 75.857l60.339 60.339 126.712-126.712-60.339-60.339-126.712 126.712zM13.141 9.489l126.712 126.712 60.339-60.339-126.712-126.712-60.339 60.339zM1024-64h-1024v810.667h1024v-810.667zM85.333 21.333h853.333v640h-853.333v-640zM896 64h-768v554.667h768v-554.667zM213.333 149.333h597.333v384h-597.333v-384z" />
<glyph unicode="&#xe91f;" glyph-name="pen" d="M29.867-34.133l59.733 290.133 550.4 550.4 230.4-230.4-550.4-550.4-290.133-59.733zM298.667 64v0 0zM166.4 213.333l-25.6-136.533 136.533 25.6 473.6 473.6-110.933 110.933-473.6-473.6zM746.667 810.667l81.067 81.067c34.133 34.133 93.867 34.133 128 0s34.133-93.867 0-128l-81.067-81.067-128 128zM682.667 132.267l-59.733 59.733 256 256-128 128 59.733 59.733 187.733-187.733z" />
<glyph unicode="&#xe920;" glyph-name="instagram" horiz-adv-x="878" d="M585.143 438.857c0 80.571-65.714 146.286-146.286 146.286s-146.286-65.714-146.286-146.286 65.714-146.286 146.286-146.286 146.286 65.714 146.286 146.286zM664 438.857c0-124.571-100.571-225.143-225.143-225.143s-225.143 100.571-225.143 225.143 100.571 225.143 225.143 225.143 225.143-100.571 225.143-225.143zM725.714 673.143c0-29.143-23.429-52.571-52.571-52.571s-52.571 23.429-52.571 52.571 23.429 52.571 52.571 52.571 52.571-23.429 52.571-52.571zM438.857 798.857c-64 0-201.143 5.143-258.857-17.714-20-8-34.857-17.714-50.286-33.143s-25.143-30.286-33.143-50.286c-22.857-57.714-17.714-194.857-17.714-258.857s-5.143-201.143 17.714-258.857c8-20 17.714-34.857 33.143-50.286s30.286-25.143 50.286-33.143c57.714-22.857 194.857-17.714 258.857-17.714s201.143-5.143 258.857 17.714c20 8 34.857 17.714 50.286 33.143s25.143 30.286 33.143 50.286c22.857 57.714 17.714 194.857 17.714 258.857s5.143 201.143-17.714 258.857c-8 20-17.714 34.857-33.143 50.286s-30.286 25.143-50.286 33.143c-57.714 22.857-194.857 17.714-258.857 17.714zM877.714 438.857c0-60.571 0.571-120.571-2.857-181.143-3.429-70.286-19.429-132.571-70.857-184s-113.714-67.429-184-70.857c-60.571-3.429-120.571-2.857-181.143-2.857s-120.571-0.571-181.143 2.857c-70.286 3.429-132.571 19.429-184 70.857s-67.429 113.714-70.857 184c-3.429 60.571-2.857 120.571-2.857 181.143s-0.571 120.571 2.857 181.143c3.429 70.286 19.429 132.571 70.857 184s113.714 67.429 184 70.857c60.571 3.429 120.571 2.857 181.143 2.857s120.571 0.571 181.143-2.857c70.286-3.429 132.571-19.429 184-70.857s67.429-113.714 70.857-184c3.429-60.571 2.857-120.571 2.857-181.143z" />
<glyph unicode="&#xe921;" glyph-name="linkedin" horiz-adv-x="878" d="M199.429 593.714v-566.286h-188.571v566.286h188.571zM211.429 768.571c0.571-54.286-40.571-97.714-106.286-97.714v0h-1.143c-63.429 0-104 43.429-104 97.714 0 55.429 42.286 97.714 106.286 97.714 64.571 0 104.571-42.286 105.143-97.714zM877.714 352v-324.571h-188v302.857c0 76-27.429 128-95.429 128-52 0-82.857-34.857-96.571-68.571-4.571-12.571-6.286-29.143-6.286-46.286v-316h-188c2.286 513.143 0 566.286 0 566.286h188v-82.286h-1.143c24.571 38.857 69.143 95.429 170.857 95.429 124 0 216.571-81.143 216.571-254.857z" />
<glyph unicode="&#xe922;" glyph-name="twitter" horiz-adv-x="951" d="M925.714 717.714c-25.143-36.571-56.571-69.143-92.571-95.429 0.571-8 0.571-16 0.571-24 0-244-185.714-525.143-525.143-525.143-104.571 0-201.714 30.286-283.429 82.857 14.857-1.714 29.143-2.286 44.571-2.286 86.286 0 165.714 29.143 229.143 78.857-81.143 1.714-149.143 54.857-172.571 128 11.429-1.714 22.857-2.857 34.857-2.857 16.571 0 33.143 2.286 48.571 6.286-84.571 17.143-148 91.429-148 181.143v2.286c24.571-13.714 53.143-22.286 83.429-23.429-49.714 33.143-82.286 89.714-82.286 153.714 0 34.286 9.143 65.714 25.143 93.143 90.857-112 227.429-185.143 380.571-193.143-2.857 13.714-4.571 28-4.571 42.286 0 101.714 82.286 184.571 184.571 184.571 53.143 0 101.143-22.286 134.857-58.286 41.714 8 81.714 23.429 117.143 44.571-13.714-42.857-42.857-78.857-81.143-101.714 37.143 4 73.143 14.286 106.286 28.571z" />
<glyph unicode="&#xe923;" glyph-name="facebook, facebook-f" horiz-adv-x="602" d="M548 944v-150.857h-89.714c-70.286 0-83.429-33.714-83.429-82.286v-108h167.429l-22.286-169.143h-145.143v-433.714h-174.857v433.714h-145.714v169.143h145.714v124.571c0 144.571 88.571 223.429 217.714 223.429 61.714 0 114.857-4.571 130.286-6.857z" />
<glyph unicode="&#xe924;" glyph-name="youtube" d="M406.286 306.286l276.571 142.857-276.571 144.571v-287.429zM512 798.857c215.429 0 358.286-10.286 358.286-10.286 20-2.286 64-2.286 102.857-43.429 0 0 31.429-30.857 40.571-101.714 10.857-82.857 10.286-165.714 10.286-165.714v-77.714s0.571-82.857-10.286-165.714c-9.143-70.286-40.571-101.714-40.571-101.714-38.857-40.571-82.857-40.571-102.857-42.857 0 0-142.857-10.857-358.286-10.857v0c-266.286 2.286-348 10.286-348 10.286-22.857 4-74.286 2.857-113.143 43.429 0 0-31.429 31.429-40.571 101.714-10.857 82.857-10.286 165.714-10.286 165.714v77.714s-0.571 82.857 10.286 165.714c9.143 70.857 40.571 101.714 40.571 101.714 38.857 41.143 82.857 41.143 102.857 43.429 0 0 142.857 10.286 358.286 10.286v0z" />
<glyph unicode="&#xe925;" glyph-name="feed, rss" horiz-adv-x="805" d="M219.429 182.857c0-60.571-49.143-109.714-109.714-109.714s-109.714 49.143-109.714 109.714 49.143 109.714 109.714 109.714 109.714-49.143 109.714-109.714zM512 112.571c0.571-10.286-2.857-20-9.714-27.429-6.857-8-16.571-12-26.857-12h-77.143c-18.857 0-34.286 14.286-36 33.143-16.571 174.286-154.857 312.571-329.143 329.143-18.857 1.714-33.143 17.143-33.143 36v77.143c0 10.286 4 20 12 26.857 6.286 6.286 15.429 9.714 24.571 9.714h2.857c121.714-9.714 236.571-62.857 322.857-149.714 86.857-86.286 140-201.143 149.714-322.857zM804.571 111.428c0.571-9.714-2.857-19.429-10.286-26.857-6.857-7.429-16-11.429-26.286-11.429h-81.714c-19.429 0-35.429 14.857-36.571 34.286-18.857 332-283.429 596.571-615.429 616-19.429 1.143-34.286 17.143-34.286 36v81.714c0 10.286 4 19.429 11.429 26.286 6.857 6.857 16 10.286 25.143 10.286h1.714c200-10.286 388-94.286 529.714-236.571 142.286-141.714 226.286-329.714 236.571-529.714z" />
<glyph unicode="&#xe926;" glyph-name="zoom-split" d="M750.967 148.694l60.339 60.339 187.052-187.052-60.339-60.339-187.052 187.052zM426.667 106.667c-234.667 0-426.667 192-426.667 426.667s192 426.667 426.667 426.667c234.667 0 426.667-192 426.667-426.667s-192-426.667-426.667-426.667zM426.667 874.667c-187.733 0-341.333-153.6-341.333-341.333s153.6-341.333 341.333-341.333 341.333 153.6 341.333 341.333-153.6 341.333-341.333 341.333zM251.733 524.8l-85.333 17.067 8.533 42.667c21.333 102.4 98.133 179.2 200.533 200.533l42.667 8.533 17.067-85.333-42.667-8.533c-68.267-12.8-119.467-64-132.267-132.267l-8.533-42.667z" />
<glyph unicode="&#xe927;" glyph-name="information" d="M512 950.857c-281.6 0-512-230.4-512-512s230.4-512 512-512 512 230.4 512 512-230.4 512-512 512zM576 182.857h-128v320h128v-320zM512 566.857c-38.4 0-64 25.6-64 64s25.6 64 64 64 64-25.6 64-64-25.6-64-64-64z" />
<glyph unicode="&#xe928;" glyph-name="error" d="M512 950.857c-281.6 0-512-230.4-512-512s230.4-512 512-512 512 230.4 512 512-230.4 512-512 512zM736 304.457l-89.6-89.6-134.4 134.4-134.4-134.4-89.6 89.6 134.4 134.4-134.4 134.4 89.6 89.6 134.4-134.4 134.4 134.4 89.6-89.6-134.4-134.4 134.4-134.4z" />
<glyph unicode="&#xe929;" glyph-name="warning" d="M512 950.857c-281.6 0-512-230.4-512-512s230.4-512 512-512 512 230.4 512 512-230.4 512-512 512zM512 182.857c-38.4 0-64 25.6-64 64s25.6 64 64 64 64-25.6 64-64-25.6-64-64-64zM576 374.857h-128v320h128v-320z" />
<glyph unicode="&#xe92a;" glyph-name="success" d="M512 950.857c-281.6 0-512-230.4-512-512s230.4-512 512-512 512 230.4 512 512-230.4 512-512 512zM448 221.257l-217.6 217.6 89.6 89.6 128-128 256 256 89.6-89.6-345.6-345.6z" />
<glyph unicode="&#xe92b;" glyph-name="file-excel" horiz-adv-x="878" d="M838.857 733.714c21.143-21.143 38.857-63.429 38.857-93.714v-658.286c0-30.286-24.571-54.857-54.857-54.857h-768c-30.286 0-54.857 24.571-54.857 54.857v914.286c0 30.286 24.571 54.857 54.857 54.857h512c30.286 0 72.571-17.714 93.714-38.857zM585.143 873.143v-214.857h214.857c-3.429 9.714-8.571 19.429-12.571 23.429l-178.857 178.857c-4 4-13.714 9.143-23.429 12.571zM804.571 0v585.143h-237.714c-30.286 0-54.857 24.571-54.857 54.857v237.714h-438.857v-877.714h731.429zM245.143 133.714v-60.571h160.571v60.571h-42.857l58.857 92c6.857 10.857 10.286 19.429 12 19.429h1.143c0.571-2.286 1.714-4 2.857-5.714 2.286-4.571 5.714-8 9.714-13.714l61.143-92h-43.429v-60.571h166.286v60.571h-38.857l-109.714 156 111.429 161.143h38.286v61.143h-159.429v-61.143h42.286l-58.857-90.857c-6.857-10.857-12-19.429-12-18.857h-1.143c-0.571 2.286-1.714 4-2.857 5.714-2.286 4-5.143 8-9.714 13.143l-60.571 90.857h43.429v61.143h-165.714v-61.143h38.857l108-155.429-110.857-161.714h-38.857z" />
<glyph unicode="&#xe92c;" glyph-name="file-powerpoint" horiz-adv-x="878" d="M838.857 733.714c21.143-21.143 38.857-63.429 38.857-93.714v-658.286c0-30.286-24.571-54.857-54.857-54.857h-768c-30.286 0-54.857 24.571-54.857 54.857v914.286c0 30.286 24.571 54.857 54.857 54.857h512c30.286 0 72.571-17.714 93.714-38.857zM585.143 873.143v-214.857h214.857c-3.429 9.714-8.571 19.429-12.571 23.429l-178.857 178.857c-4 4-13.714 9.143-23.429 12.571zM804.571 0v585.143h-237.714c-30.286 0-54.857 24.571-54.857 54.857v237.714h-438.857v-877.714h731.429zM237.714 133.714v-60.571h186.857v60.571h-53.143v95.429h78.286c24.571 0 46.857 1.143 67.429 8.571 51.429 17.714 83.429 70.857 83.429 133.143s-30.857 110.286-78.286 130.286c-21.714 8.571-48 10.857-74.286 10.857h-210.286v-61.143h52.571v-317.143h-52.571zM439.429 293.714h-68v153.143h68.571c20 0 35.429-3.429 47.429-10.286 20.571-12 32-35.429 32-65.714 0-32-11.429-56.571-35.429-68.571-12-5.714-26.857-8.571-44.571-8.571z" />
<glyph unicode="&#xe92d;" glyph-name="file-word" horiz-adv-x="878" d="M838.857 733.714c21.143-21.143 38.857-63.429 38.857-93.714v-658.286c0-30.286-24.571-54.857-54.857-54.857h-768c-30.286 0-54.857 24.571-54.857 54.857v914.286c0 30.286 24.571 54.857 54.857 54.857h512c30.286 0 72.571-17.714 93.714-38.857zM585.143 873.143v-214.857h214.857c-3.429 9.714-8.571 19.429-12.571 23.429l-178.857 178.857c-4 4-13.714 9.143-23.429 12.571zM804.571 0v585.143h-237.714c-30.286 0-54.857 24.571-54.857 54.857v237.714h-438.857v-877.714h731.429zM133.143 512v-61.143h40l93.714-377.714h90.857l73.143 277.143c2.857 8.571 4.571 17.143 5.714 26.286 0.571 4.571 1.143 9.143 1.143 13.714h2.286l1.714-13.714c1.714-8 2.286-17.143 5.143-26.286l73.143-277.143h90.857l93.714 377.714h40v61.143h-171.429v-61.143h51.429l-56.571-250.286c-2.286-9.143-3.429-18.857-4-26.286l-1.143-12h-2.286c0 3.429-1.143 8-1.714 12-1.714 7.429-2.857 17.143-5.143 26.286l-82.286 311.429h-65.143l-82.286-311.429c-2.286-9.143-2.857-18.857-4.571-26.286l-2.286-12h-2.286l-1.143 12c-0.571 7.429-1.714 17.143-4 26.286l-56.571 250.286h51.429v61.143h-171.429z" />
<glyph unicode="&#xe92e;" glyph-name="file-pdf" horiz-adv-x="878" d="M838.857 733.714c21.143-21.143 38.857-63.429 38.857-93.714v-658.286c0-30.286-24.571-54.857-54.857-54.857h-768c-30.286 0-54.857 24.571-54.857 54.857v914.286c0 30.286 24.571 54.857 54.857 54.857h512c30.286 0 72.571-17.714 93.714-38.857zM585.143 873.143v-214.857h214.857c-3.429 9.714-8.571 19.429-12.571 23.429l-178.857 178.857c-4 4-13.714 9.143-23.429 12.571zM804.571 0v585.143h-237.714c-30.286 0-54.857 24.571-54.857 54.857v237.714h-438.857v-877.714h731.429zM510.857 338.857c14.286-11.429 30.286-21.714 48-32 24 2.857 46.286 4 66.857 4 38.286 0 86.857-4.571 101.143-28 4-5.714 7.429-16 1.143-29.714-0.571-0.571-1.143-1.714-1.714-2.286v-0.571c-1.714-10.286-10.286-21.714-40.571-21.714-36.571 0-92 16.571-140 41.714-79.429-8.571-162.857-26.286-224-47.429-58.857-100.571-104-149.714-138.286-149.714-5.714 0-10.857 1.143-16 4l-13.714 6.857c-1.714 0.571-2.286 1.714-3.429 2.857-2.857 2.857-5.143 9.143-3.429 20.571 5.714 26.286 36.571 70.286 107.429 107.429 4.571 2.857 10.286 1.143 13.143-3.429 0.571-0.571 1.143-1.714 1.143-2.286 17.714 29.143 38.286 66.286 61.143 112.571 25.714 51.429 45.714 101.714 59.429 149.714-18.286 62.286-24 126.286-13.714 164 4 14.286 12.571 22.857 24 22.857h12.571c8.571 0 15.429-2.857 20-8.571 6.857-8 8.571-20.571 5.143-38.857-0.571-1.714-1.143-3.429-2.286-4.571 0.571-1.714 0.571-2.857 0.571-4.571v-17.143c-0.571-36-1.143-70.286-8-109.714 20-60 49.714-108.571 83.429-136zM181.714 104c17.143 8 41.714 32.571 78.286 90.286-42.857-33.143-69.714-70.857-78.286-90.286zM409.143 629.714c-5.714-16-5.714-43.429-1.143-75.429 1.714 9.143 2.857 17.714 4 25.143 1.143 9.714 2.857 17.714 4 24.571 0.571 1.714 1.143 2.857 2.286 4.571-0.571 0.571-0.571 1.714-1.143 2.857-0.571 10.286-4 16.571-7.429 20.571 0-1.143-0.571-1.714-0.571-2.286zM338.286 252c50.286 20 106.286 36 162.286 46.286-5.714 4.571-11.429 8.571-16.571 13.143-28 24.571-53.143 58.857-72.571 100.571-10.857-34.857-26.857-72-47.429-112.571-8.571-16-17.143-32-25.714-47.429zM707.429 261.143c-2.857 2.857-17.714 13.714-80 13.714 28-10.286 53.714-16 70.857-16 5.143 0 8 0 10.286 0.571 0 0.571-0.571 1.143-1.143 1.714z" />
<glyph unicode="&#xe92f;" glyph-name="mobile" d="M768 950.857h-512c-52.928 0-96-43.072-96-96v-832c0-52.928 43.072-96 96-96h512c52.928 0 96 43.072 96 96v832c0 52.928-43.072 96-96 96zM800 86.857c0-17.664-14.336-32-32-32h-512c-17.664 0-32 14.336-32 32v704c0 17.664 14.336 32 32 32h512c17.664 0 32-14.336 32-32v-704z" />
</font>
</defs>
</svg>
